<?xml version="1.0" standalone="no"?>
<!DOCTYPE svg PUBLIC "-//W3C//DTD SVG 1.1//EN" "http://www.w3.org/Graphics/SVG/1.1/DTD/svg11.dtd" >
<svg xmlns="http://www.w3.org/2000/svg">
<defs>
  <font id="iconfont" horiz-adv-x="76">
    <font-face font-family="iconfont"
      units-per-em="76" ascent="76"
      descent="0" />
    <missing-glyph horiz-adv-x="0" />
    <glyph glyph-name="add"
      unicode="&#xE900;"
      horiz-adv-x="76" d="M38 6.9C27.85 6.9 20.04 9.56 14.79 14.799C9.55 20.05 6.89 27.85 6.9 38C6.9 58.34 17.66 69.1 38 69.1C48.15 69.1 55.96 66.44 61.2 61.2C66.45 55.95 69.1 48.15 69.1 38C69.1 17.65 58.34 6.9 38 6.9zM38 63.1C20.88 63.1 12.9 55.12 12.9 38C12.9 29.5 14.96 23.12 19.04 19.05C23.12 14.98 29.5 12.9 38 12.9C55.12 12.9 63.1 20.879 63.1 38C63.1 46.5 61.04 52.88 56.96 56.96C52.88 61.03 46.5 63.1 38 63.1zM49.04 41H41V49.04C41 50.7 39.66 52.04 38 52.04S35 50.7 35 49.04V41H26.96C25.3 41 23.96 39.66 23.96 38S25.3 35 26.96 35H35V26.96C35 25.3 36.34 23.96 38 23.96S41 25.3 41 26.96V35H49.04C50.7 35 52.04 36.34 52.04 38S50.7 41 49.04 41z" />
    <glyph glyph-name="alipay"
      unicode="&#xE901;"
      horiz-adv-x="76" d="M76 23.908V61.433A14.528 14.528 0 0 1 61.434 76H14.567A14.529 14.529 0 0 1 0 61.433V14.725C0 6.491 6.492 0 14.567 0H61.275A14.61 14.61 0 0 1 75.683 12.033C71.882 13.775 54.941 20.9 46.232 25.175C39.583 17.1 32.616 12.191 22.166 12.191S4.592 18.684 5.542 26.6C6.175 31.827 9.659 40.375 25.175 38.792C33.408 38 37.05 36.575 43.7 34.357C45.441 37.524 46.866 41.007 47.974 44.649H18.367V47.5H32.934V52.725H15.2V55.892H33.092V63.65S33.25 64.758 34.517 64.758H41.8V56.05H60.8V52.883H41.8V47.658H57.317C56.05 42.116 53.835 36.732 50.985 31.825C55.575 30.241 76 23.908 76 23.908zM21.058 17.259C9.975 17.259 8.233 24.225 8.708 27.235C9.341 30.085 12.508 33.884 18.683 33.884C25.808 33.884 32.141 32.143 39.741 28.342C34.517 21.375 27.867 17.259 21.058 17.259z" />
    <glyph glyph-name="all"
      unicode="&#xE902;"
      horiz-adv-x="76" d="M33.132 8.418L19.799 51.727L19.716 51.964C18.672 54.569 14.452 54.439 13.681 51.654L1.681 8.345L1.632 8.135C1.347 6.658 2.357 5.211 3.976 4.84L4.207 4.793C5.825 4.533 7.412 5.455 7.821 6.93L9.849 14.25H24.758L27.034 6.857L27.106 6.652C27.665 5.245 29.331 4.447 30.938 4.858C32.622 5.288 33.604 6.884 33.132 8.418zM11.603 20.583L16.91 39.739L22.808 20.583H11.603zM39.583 53.833C41.253 53.833 42.62 52.655 42.74 51.161L42.75 50.945V10.523H50.667C52.337 10.523 53.703 9.346 53.824 7.851L53.833 7.638C53.833 6.115 52.541 4.867 50.903 4.757L50.667 4.749H39.583C37.914 4.749 36.547 5.927 36.425 7.421L36.417 7.638V50.945C36.417 52.541 37.835 53.833 39.583 53.833zM60.167 53.833C61.837 53.833 63.203 52.655 63.324 51.161L63.333 50.945V10.523H71.25C72.92 10.523 74.287 9.346 74.407 7.851L74.417 7.638C74.417 6.115 73.124 4.867 71.486 4.757L71.25 4.75H60.167C58.497 4.75 57.13 5.928 57.01 7.422L57 7.639V50.945C57 52.541 58.418 53.833 60.167 53.833z" />
    <glyph glyph-name="angle"
      unicode="&#xE903;"
      horiz-adv-x="76" d="M18.536 0A3.882 3.882 0 0 0 15.974 6.8L51.574 38.034L15.978 69.197A3.882 3.882 0 0 0 21.092 75.039L60.02 40.959C60.862 40.222 61.348 39.158 61.348 38.04S60.866 35.858 60.024 35.119L21.095 0.962A3.88 3.88 0 0 0 18.536 0z" />
    <glyph glyph-name="article"
      unicode="&#xE904;"
      horiz-adv-x="76" d="M18.842 5.699C23.433 5.699 27.392 4.59 27.55 4.59C28.817 4.274 30.083 5.067 30.4 6.174C30.717 7.442 29.925 8.709 28.817 9.024C28.817 9.024 24.225 10.293 19 10.293H16.941C11.399 9.978 9.183 8.233 8.866 7.918C7.916 7.127 7.758 5.543 8.549 4.592C9.341 3.644 10.924 3.486 11.716 4.437L11.874 4.592C12.349 4.91 13.932 5.701 17.099 5.861C17.575 5.699 18.208 5.699 18.842 5.699zM58.426 10.291H56.367C51.301 10.291 47.025 9.184 46.551 9.023C45.916 8.865 45.442 8.547 45.125 7.916C44.809 7.441 44.809 6.809 44.967 6.174C45.283 4.908 46.551 4.274 47.817 4.59C47.977 4.59 51.934 5.699 56.526 5.699H58.268C62.067 5.383 63.651 4.433 63.651 4.433C64.602 3.64 66.026 3.797 66.817 4.748C67.293 5.224 67.453 5.854 67.453 6.488C67.453 7.123 67.137 7.596 66.66 8.072C66.184 8.074 63.967 9.816 58.426 10.291zM37.525 3.008C40.692 3.008 43.227 5.541 43.227 8.865V11.875H43.541C46.393 12.508 51.775 13.459 56.209 13.459H57.951C63.492 13.141 66.025 11.717 66.183 11.717C66.498 11.559 66.976 11.399 67.289 11.399C69.981 11.399 72.356 13.617 72.356 16.467V54.942C72.356 57.792 69.506 59.692 68.555 60.325C68.08 60.642 66.18 61.75 61.272 62.383V57.792C64.123 57.317 65.547 56.842 65.865 56.684C66.022 56.525 66.022 56.525 66.18 56.525C66.813 56.208 67.449 55.417 67.606 55.258V15.99L67.131 16.148C65.547 16.783 62.697 17.574 58.264 17.89H56.205C51.93 17.89 47.18 17.099 43.853 16.465L43.377 16.308V32.458H38.627V8.708C38.627 8.073 38.152 7.6 37.519 7.6S36.412 8.075 36.412 8.708V32.458H31.82V16.466L31.344 16.624C28.019 17.257 23.111 18.048 18.994 18.048H16.935C12.502 17.573 9.652 16.782 8.069 16.149L7.441 15.99V54.942C7.599 55.258 8.233 55.892 9.024 56.367C9.183 56.367 9.183 56.367 9.183 56.525H9.342C9.659 56.684 10.925 57.158 13.142 57.633V62.225C9.184 61.75 7.442 60.8 6.65 60.325C5.701 59.85 2.85 57.791 2.85 54.942V16.309C2.85 13.617 5.067 11.242 7.917 11.242C8.233 11.242 8.709 11.399 9.025 11.559C9.184 11.559 11.717 12.983 17.259 13.299H18.842C23.275 13.299 28.659 12.35 31.509 11.717H31.826V8.709A5.675 5.675 0 0 1 37.525 3.008zM53.676 67.133V40.532H20.742V67.133H53.676M55.576 71.883H18.842A2.839 2.839 0 0 1 15.992 69.033V38.632A2.837 2.837 0 0 1 18.842 35.783H55.576A2.838 2.838 0 0 1 58.426 38.632V68.875C58.426 70.458 57.158 71.883 55.576 71.883zM43.541 51.142L36.1 46.549C35.625 46.233 35.15 46.074 34.675 46.074C34.2 46.074 33.725 46.232 33.25 46.391C32.3 46.866 31.825 47.816 31.825 48.766V58.266C31.825 59.374 32.458 60.324 33.25 60.799C34.2 61.275 35.308 61.275 36.1 60.641L43.541 55.732C44.334 55.256 44.809 54.307 44.809 53.357C44.809 52.567 44.334 51.617 43.541 51.142z" />
    <glyph glyph-name="at"
      unicode="&#xE905;"
      horiz-adv-x="76" d="M39.21 0C47.174 0 54.328 1.638 60.78 4.814C67.432 8.092 72.471 12.802 76 18.95H68.944C66.121 14.851 62.393 11.677 57.756 9.322C52.514 6.759 46.265 5.427 39.209 5.427C29.33 5.427 21.569 8.193 15.925 13.52C9.877 19.153 6.953 27.144 6.953 37.487C6.953 46.91 9.877 54.798 15.824 60.943C21.871 67.191 29.532 70.264 38.806 70.264C47.475 70.264 54.531 67.703 59.77 62.48C64.61 57.666 67.029 51.623 67.029 44.351C67.029 38 65.214 32.468 61.587 27.758C58.462 23.763 55.338 21.714 52.213 21.714C50.296 21.714 49.39 22.637 49.39 24.275C49.39 25.504 49.793 27.553 50.6 30.524L57.757 57.256H51.206L49.692 51.52C48.079 56.641 44.852 59.202 40.016 59.202C33.968 59.202 28.827 56.539 24.392 51.009C19.755 45.478 17.537 38.82 17.537 31.242C17.537 26.836 18.848 23.149 21.468 20.282C24.089 17.413 27.517 15.876 31.75 15.876C36.789 15.876 41.022 18.234 44.451 22.841C44.851 18.336 47.173 16.082 51.405 16.082C56.647 16.082 61.484 18.951 65.92 24.582C70.354 30.524 72.674 37.08 72.674 44.454C72.674 53.263 69.849 60.535 64.206 66.372C58.059 72.825 49.692 76 39.21 76C27.618 76 18.143 72.21 10.685 64.528C3.528 57.359 0 48.448 0 37.693C0 26.221 3.528 17.104 10.685 10.14C17.639 3.38 27.115 0 39.21 0zM32.868 22.8C30.389 22.8 28.505 23.607 27.218 25.225C25.929 26.84 25.334 28.96 25.334 31.687C25.334 37.646 27.019 42.697 30.389 46.939C33.562 51.181 37.328 53.201 41.592 53.201C43.574 53.201 45.159 52.393 46.448 50.776C47.54 49.464 48.134 47.848 48.134 46.03C48.134 45.424 47.738 43.808 47.144 41.182L44.962 32.899C44.168 30.274 42.582 27.85 40.202 25.832C37.824 23.81 35.345 22.8 32.868 22.8z" />
    <glyph glyph-name="bell"
      unicode="&#xE906;"
      horiz-adv-x="76" d="M71.377 19.3L66.389 19.284C65.107 24.368 64.062 30.922 63.445 37.905C62.034 53.564 53.011 64.838 41.04 66.484V70.316A3.04 3.04 0 1 1 34.96 70.316V66.516C22.578 64.996 13.901 54.087 12.556 37.858C11.716 27.724 10.387 21.882 9.595 19.096L4.608 19.079C2.929 19.079 1.584 17.701 1.584 16.039A3.026 3.026 0 0 1 4.624 13.016H4.641L22.96 13.078C25.224 5.922 31.906 2.659 38.017 2.659C44.162 2.659 50.873 5.937 53.107 13.174L71.41 13.236A3.027 3.027 0 0 1 74.433 16.276A3.05 3.05 0 0 1 71.377 19.3zM18.604 37.367C19.792 51.49 27.392 60.626 38 60.626C48.181 60.626 56.145 51.063 57.396 37.351C57.998 30.622 58.949 24.415 60.152 19.254L15.897 19.111C17.053 23.846 18.018 30.194 18.604 37.367zM38 8.724C35.007 8.724 31.444 9.927 29.545 13.078L46.471 13.141C44.603 9.942 41.009 8.724 38 8.724z" />
    <glyph glyph-name="book"
      unicode="&#xE907;"
      horiz-adv-x="76" d="M65.866 64.917H48.836C44.71 64.917 41.086 62.819 38 58.817C34.914 62.819 31.291 64.917 27.163 64.917H10.133C6.285 64.917 3.166 61.727 3.166 57.792V19.792L3.174 19.456C3.345 15.677 6.396 12.667 10.133 12.667H26.636L27.259 12.376C28.122 11.983 29.061 11.594 30.045 11.226C31.616 10.641 33.159 10.178 34.633 9.876C34.991 9.803 35.331 9.761 35.677 9.708V9.5H40.322V9.708C40.668 9.761 41.008 9.803 41.366 9.876C42.84 10.178 44.383 10.641 45.954 11.226A44.285 44.285 0 0 1 48.74 12.376L49.363 12.667H65.866C69.604 12.667 72.654 15.677 72.825 19.456L72.833 19.792V57.792C72.833 61.727 69.715 64.917 65.866 64.917zM35.545 14.533C34.324 14.782 33 15.182 31.634 15.691A37.057 37.057 0 0 0 29.737 16.455L28.929 16.816L28.418 17.057L27.711 17.416H10.133C8.85 17.416 7.81 18.479 7.81 19.791V57.791C7.81 59.103 8.85 60.166 10.133 60.166H27.163L27.493 60.159C30.349 60.027 32.984 58.165 35.444 54.324L35.677 53.95V14.507L35.545 14.533zM68.188 19.792C68.188 18.48 67.149 17.417 65.866 17.417H48.289L47.582 17.058L47.07 16.817L46.262 16.456C45.66 16.194 45.024 15.936 44.366 15.692C42.999 15.183 41.675 14.783 40.454 14.534L40.321 14.509V53.951L40.554 54.325C43.014 58.166 45.649 60.028 48.505 60.16L48.834 60.167H65.864C67.147 60.167 68.186 59.104 68.186 57.792V19.792zM26.67 47.5C27.953 47.5 28.992 46.437 28.992 45.125C28.992 43.891 28.071 42.876 26.894 42.761L26.67 42.75H16.818C15.535 42.75 14.496 43.813 14.496 45.125C14.496 46.359 15.417 47.374 16.594 47.489L16.818 47.5H26.67zM26.67 33.25C27.953 33.25 28.992 32.187 28.992 30.875C28.992 29.641 28.071 28.627 26.894 28.511L26.67 28.5H16.818C15.535 28.5 14.496 29.563 14.496 30.875C14.496 32.109 15.417 33.123 16.594 33.239L16.818 33.25H26.67zM49.331 47.5C48.047 47.5 47.008 46.437 47.008 45.125C47.008 43.891 47.929 42.876 49.106 42.761L49.332 42.75H59.183C60.465 42.75 61.504 43.813 61.504 45.125C61.504 46.359 60.584 47.374 59.407 47.489L59.182 47.5H49.331zM49.331 33.25C48.047 33.25 47.008 32.187 47.008 30.875C47.008 29.641 47.929 28.627 49.106 28.511L49.332 28.5H59.183C60.465 28.5 61.504 29.563 61.504 30.875C61.504 32.109 60.584 33.123 59.407 33.239L59.182 33.25H49.331z" />
    <glyph glyph-name="cable"
      unicode="&#xE908;"
      horiz-adv-x="76" d="M66.975 18.619H65.597V44.444C65.597 44.494 65.585 44.54 65.582 44.588C65.6 44.982 65.612 45.377 65.612 45.775C65.612 60.595 53.564 72.644 38.744 72.644S11.875 60.594 11.875 45.774C11.875 45.404 11.888 45.038 11.903 44.671A2.383 2.383 0 0 1 11.86 44.237V22.292H9.025A2.372 2.372 0 0 1 6.65 19.917V5.73A2.373 2.373 0 0 1 9.025 3.355H19.442A2.35 2.35 0 0 1 21.802 5.73V19.918A2.372 2.372 0 0 1 19.427 22.293H16.609V30.563C21.458 23.527 29.568 18.905 38.744 18.905C47.893 18.905 55.991 23.51 60.847 30.524V18.62H59.264A2.372 2.372 0 0 1 56.889 16.245V5.732A2.373 2.373 0 0 1 59.264 3.357H66.975A2.382 2.382 0 0 1 69.35 5.732V16.244A2.371 2.371 0 0 1 66.975 18.619zM17.053 8.106H11.4V17.543H17.052V8.106zM38.744 23.654C29.497 23.654 21.976 31.192 21.976 40.438S29.497 57.205 38.744 57.205C47.992 57.205 55.513 49.684 55.513 40.438C55.513 31.175 47.992 23.654 38.744 23.654zM38.744 61.956C26.949 61.956 17.34 52.415 17.236 40.629A22.047 22.047 0 0 0 16.625 45.775C16.625 57.966 26.553 67.894 38.744 67.894S60.862 57.967 60.862 45.775A22.1 22.1 0 0 0 60.253 40.636C60.146 52.403 50.537 61.956 38.744 61.956zM64.6 8.106H61.639V13.869H64.6V8.106z" />
    <glyph glyph-name="cake"
      unicode="&#xE909;"
      horiz-adv-x="76" d="M20.457 60.879A3.176 3.176 0 0 0 17.29 64.046V66.199C17.29 67.941 18.715 69.366 20.457 69.366S23.624 67.941 23.624 66.199V64.046A3.167 3.167 0 0 0 20.457 60.879zM37.873 60.879A3.176 3.176 0 0 0 34.707 64.046V66.199C34.707 67.941 36.132 69.366 37.873 69.366S41.04 67.941 41.04 66.199V64.046A3.166 3.166 0 0 0 37.873 60.879zM55.29 60.879A3.177 3.177 0 0 0 52.123 64.046V66.199C52.123 67.941 53.549 69.366 55.29 69.366S58.457 67.941 58.457 66.199V64.046A3.156 3.156 0 0 0 55.29 60.879zM70.269 12.983H67.577V42.877A3.177 3.177 0 0 1 64.41 46.043H58.458V55.733C58.458 57.474 57.032 58.9 55.291 58.9S52.124 57.474 52.124 55.733V46.043H41.04V55.733C41.04 57.474 39.614 58.9 37.873 58.9S34.707 57.474 34.707 55.733V46.043H23.623V55.733C23.623 57.474 22.198 58.9 20.456 58.9S17.289 57.474 17.289 55.733V46.043H11.764A3.176 3.176 0 0 1 8.597 42.877V12.983H5.463A3.177 3.177 0 0 1 2.296 9.817A3.175 3.175 0 0 1 5.463 6.65H70.285C72.026 6.65 73.434 8.074 73.434 9.817A3.174 3.174 0 0 1 70.269 12.983zM61.243 12.983H14.931V22.637C15.295 23.453 16.827 26.307 21.058 26.408C23.703 26.456 25.191 25.443 27.312 24.033C29.687 22.466 32.631 20.504 37.24 20.504C42.527 20.504 45.474 22.515 47.849 24.13C49.779 25.459 51.173 26.408 53.848 26.408C58.536 26.408 60.752 23.179 60.816 23.068C60.94 22.87 61.086 22.693 61.243 22.533V12.983zM61.243 30.873C59.353 31.921 56.907 32.743 53.864 32.743C49.241 32.743 46.485 30.875 44.287 29.37C42.212 27.962 40.581 26.853 37.24 26.853C34.532 26.853 32.886 27.946 30.811 29.322C28.436 30.89 25.444 32.854 20.9 32.743C18.481 32.685 16.522 32.113 14.931 31.301V39.71H61.243V30.873z" />
    <glyph glyph-name="calendar"
      unicode="&#xE90A;"
      horiz-adv-x="76" d="M69.872 60.705H59.264V65.312A3.057 3.057 0 0 1 56.208 68.368A3.047 3.047 0 0 1 53.153 65.312V60.689H21.375V65.312A3.058 3.058 0 0 1 18.319 68.368A3.047 3.047 0 0 1 15.264 65.312V60.689H6.128A4.52 4.52 0 0 1 1.584 56.161V12.175A4.543 4.543 0 0 1 6.128 7.632H69.872A4.544 4.544 0 0 1 74.417 12.175V56.161A4.544 4.544 0 0 1 69.872 60.705zM68.306 13.743H7.695V54.593H15.279V50.54A3.058 3.058 0 0 1 18.335 47.484A3.047 3.047 0 0 1 21.391 50.54V54.593H53.168V50.54C53.168 48.861 54.529 47.484 56.224 47.484S59.28 48.845 59.28 50.54V54.593H68.322V13.743H68.306zM21.755 42.275H15.405A3.048 3.048 0 0 1 12.349 39.218A3.058 3.058 0 0 1 15.405 36.162H21.77A3.048 3.048 0 0 1 24.826 39.218C24.811 40.897 23.449 42.275 21.755 42.275zM21.755 29.576H15.405A3.047 3.047 0 0 1 12.349 26.52A3.047 3.047 0 0 1 15.405 23.465H21.77A3.047 3.047 0 0 1 24.826 26.52A3.059 3.059 0 0 1 21.755 29.576zM41.42 42.275H35.056A3.049 3.049 0 0 1 31.999 39.218A3.058 3.058 0 0 1 35.056 36.162H41.42A3.047 3.047 0 0 1 44.476 39.218A3.068 3.068 0 0 1 41.42 42.275zM41.42 29.576H35.056A3.047 3.047 0 0 1 31.999 26.52A3.047 3.047 0 0 1 35.056 23.465H41.42A3.046 3.046 0 0 1 44.476 26.52A3.056 3.056 0 0 1 41.42 29.576zM54.056 42.275A3.05 3.05 0 0 1 50.999 39.218A3.058 3.058 0 0 1 54.056 36.162H60.42A3.047 3.047 0 0 1 63.476 39.218A3.057 3.057 0 0 1 60.42 42.275H54.056zM60.42 29.576H54.056A3.048 3.048 0 0 1 50.999 26.52A3.047 3.047 0 0 1 54.056 23.465H60.42A3.046 3.046 0 0 1 63.476 26.52A3.056 3.056 0 0 1 60.42 29.576z" />
    <glyph glyph-name="camera-arrow"
      unicode="&#xE90B;"
      horiz-adv-x="76" d="M37.873 54.245C28.5 54.245 20.852 46.614 20.852 37.224S28.484 20.203 37.873 20.203C47.262 20.203 54.894 27.835 54.894 37.224C54.895 46.613 47.246 54.245 37.873 54.245zM37.873 26.965C32.205 26.965 27.598 31.57 27.598 37.24C27.598 42.908 32.205 47.515 37.873 47.515C43.542 47.515 48.165 42.892 48.148 37.24C48.148 31.57 43.542 26.965 37.873 26.965zM1.805 22.594V57.84A5.973 5.973 0 0 0 7.774 63.808H19.474L25.095 70.49A7.097 7.097 0 0 0 30.542 73.023H45.014A7.28 7.28 0 0 0 50.698 70.299L55.891 63.807H64L62.62 64.995A2.381 2.381 0 0 0 62.368 68.352C63.222 69.349 64.726 69.444 65.722 68.605L72.753 62.541A2.33 2.33 0 0 0 73.576 60.704A2.422 2.422 0 0 0 72.705 58.9L65.676 53.184C65.247 52.82 64.726 52.646 64.187 52.646A2.407 2.407 0 0 0 62.334 53.517A2.383 2.383 0 0 0 62.683 56.858L63.91 57.855H53.042L46.074 66.563A1.336 1.336 0 0 1 45.029 67.07H30.558C30.21 67.07 29.878 66.911 29.641 66.642L22.23 57.855H7.774L7.742 22.578C7.742 20.948 6.411 19.618 4.781 19.618A2.983 2.983 0 0 0 1.805 22.594zM73.941 48.355V14.693C73.923 11.368 71.25 8.693 67.957 8.693H12.426L13.537 7.79A2.382 2.382 0 0 0 13.886 4.45A2.404 2.404 0 0 0 12.034 3.578A2.38 2.38 0 0 0 10.529 4.116L3.499 9.816A2.362 2.362 0 0 0 2.628 11.621A2.351 2.351 0 0 0 3.452 13.458L10.482 19.521A2.383 2.383 0 0 0 13.839 19.269A2.382 2.382 0 0 0 13.585 15.912L12.113 14.644H67.957L67.986 48.354C67.986 49.984 69.316 51.315 70.965 51.315A2.97 2.97 0 0 0 73.941 48.355z" />
    <glyph glyph-name="camera-large"
      unicode="&#xE90C;"
      horiz-adv-x="76" d="M22.088 45.235H12.794C11.258 45.235 10.023 46.47 10.023 48.006S11.258 50.777 12.794 50.777H22.088C23.623 50.777 24.859 49.543 24.859 48.006S23.623 45.235 22.088 45.235zM65.154 60.024H59.025L57.728 63.982A7.732 7.732 0 0 1 50.367 69.302H37.715A7.759 7.759 0 0 1 30.21 63.491L29.307 60.024H21.77L21.771 60.04A2.764 2.764 0 0 1 19 62.811H12.793A2.763 2.763 0 0 1 10.022 60.04C10.022 60.019 10.027 60 10.028 59.98C6.135 59.569 3.088 56.264 3.088 52.265V12.001C3.088 7.726 6.571 4.242 10.846 4.242H65.154C69.428 4.242 72.912 7.725 72.912 12.001V52.266C72.912 56.541 69.429 60.024 65.154 60.024zM67.37 11.986C67.37 10.766 66.373 9.769 65.154 9.769H10.846A2.223 2.223 0 0 0 8.629 11.986V52.25C8.629 53.469 9.627 54.466 10.846 54.466V54.483H31.476A2.776 2.776 0 0 1 34.152 56.557L35.578 62.099A2.201 2.201 0 0 0 37.715 63.761H50.367C51.332 63.761 52.171 63.143 52.472 62.241L54.402 56.383A2.772 2.772 0 0 1 57.031 54.484H65.154C66.373 54.484 67.37 53.486 67.37 52.267V11.986zM57.459 48.006A2.47 2.47 0 0 1 62.399 48.006A2.47 2.47 0 0 1 57.459 48.006M41.594 14.281C31.588 14.281 23.433 22.42 23.433 32.443C23.433 42.464 31.588 50.603 41.594 50.603C51.601 50.603 59.756 42.449 59.756 32.443C59.756 22.436 51.601 14.281 41.594 14.281zM41.594 45.062C34.644 45.062 28.975 39.394 28.975 32.444C28.975 25.492 34.644 19.823 41.594 19.823C48.545 19.823 54.214 25.492 54.214 32.444C54.214 39.409 48.545 45.062 41.594 45.062z" />
    <glyph glyph-name="camera-small"
      unicode="&#xE90D;"
      horiz-adv-x="76" d="M65.154 60.167H21.77L21.771 60.183A2.764 2.764 0 0 1 19 62.954H12.793A2.764 2.764 0 0 1 10.022 60.183C10.022 60.16 10.028 60.139 10.029 60.116C6.135 59.637 3.088 55.775 3.088 51.095V13.095C3.088 8.091 6.571 4.023 10.846 4.023H65.154C69.428 4.023 72.896 8.091 72.912 13.095V51.095C72.912 56.098 69.429 60.167 65.154 60.167zM67.37 13.094C67.37 11.069 66.2 9.564 65.154 9.564H10.846C9.801 9.564 8.629 11.069 8.629 13.094V51.094C8.629 53.121 9.8 54.625 10.846 54.625H65.154C66.2 54.625 67.37 53.168 67.37 51.094V13.094zM22.452 45.235H13.141C11.605 45.235 10.37 46.47 10.37 48.006S11.605 50.777 13.141 50.777H22.435C23.971 50.777 25.206 49.543 25.206 48.006S23.972 45.235 22.452 45.235zM57.823 48.006A2.47 2.47 0 0 1 62.763 48.006A2.47 2.47 0 0 1 57.823 48.006M41.958 14.281C31.952 14.281 23.797 22.42 23.797 32.443C23.797 42.464 31.952 50.603 41.958 50.603C51.966 50.603 60.12 42.449 60.12 32.443C60.12 22.436 51.966 14.281 41.958 14.281zM41.958 45.062C35.007 45.062 29.339 39.394 29.339 32.444C29.339 25.492 35.007 19.823 41.958 19.823C48.91 19.823 54.578 25.492 54.578 32.444C54.578 39.409 48.91 45.062 41.958 45.062z" />
    <glyph glyph-name="camera"
      unicode="&#xE90E;"
      horiz-adv-x="76" d="M45.221 64.015L51.49 56.177L53.327 53.881H68.306V11.987H7.695V53.88H22.135L23.972 56.049L30.685 64.014H45.221M45.886 70.126H29.973A4.594 4.594 0 0 1 26.474 68.495L19.301 59.993H4.892A3.318 3.318 0 0 1 1.583 56.683V9.183A3.319 3.319 0 0 1 4.892 5.874H71.107A3.318 3.318 0 0 1 74.417 9.183V56.683A3.318 3.318 0 0 1 71.107 59.993H56.271L49.59 68.353A4.743 4.743 0 0 1 45.886 70.126zM37.398 46.027C44.001 46.027 49.368 40.66 49.368 34.056C49.368 27.454 44.001 22.087 37.398 22.087S25.428 27.454 25.428 34.056C25.429 40.66 30.812 46.027 37.398 46.027M37.398 52.155C27.407 52.155 19.316 44.065 19.316 34.072C19.316 24.082 27.422 15.991 37.398 15.991C47.388 15.991 55.48 24.082 55.48 34.072C55.48 44.064 47.389 52.155 37.398 52.155z" />
    <glyph glyph-name="cancel"
      unicode="&#xE90F;"
      horiz-adv-x="76" d="M38 68.938C55.052 68.938 68.938 55.053 68.938 38C68.938 20.948 55.051 7.062 38 7.062C20.947 7.062 7.062 20.948 7.062 38C7.062 55.053 20.947 68.938 38 68.938M38 75.271C17.417 75.271 0.729 58.583 0.729 38S17.417 0.729 38 0.729S75.271 17.417 75.271 38S58.583 75.271 38 75.271zM50.696 21.866A3.434 3.434 0 0 0 48.275 22.861L22.879 48.276A3.41 3.41 0 0 0 22.879 53.12A3.41 3.41 0 0 0 27.723 53.12L53.137 27.707A3.413 3.413 0 0 0 53.137 22.861A3.47 3.47 0 0 0 50.696 21.866z" />
    <glyph glyph-name="card"
      unicode="&#xE910;"
      horiz-adv-x="76" d="M70.869 65.059H5.13A3.54 3.54 0 0 1 1.583 61.513V14.473A3.54 3.54 0 0 1 5.13 10.926H70.884A3.54 3.54 0 0 1 74.431 14.473V61.513A3.562 3.562 0 0 1 70.869 65.059zM68.306 58.947V49.59H7.695V58.947H68.306zM7.695 17.052V43.479H68.306V17.052H7.695z" />
    <glyph glyph-name="check"
      unicode="&#xE911;"
      horiz-adv-x="76" d="M73.382 61.589L73.444 61.528L73.586 61.383A5.558 5.558 0 0 0 73.587 53.584L33.26 12.613A5.576 5.576 0 0 0 26.981 11.448A5.57 5.57 0 0 0 24.532 12.859L24.47 12.921L2.238 35.504A5.557 5.557 0 0 0 2.238 43.302L2.41 43.477A5.559 5.559 0 0 0 10.27 43.538L10.331 43.477L29.045 24.468L65.521 61.527A5.56 5.56 0 0 0 73.382 61.589z" />
    <glyph glyph-name="checked"
      unicode="&#xE912;"
      horiz-adv-x="76" d="M38 76C17.012 76 0 58.988 0 38C0 17.014 17.012 0 38 0C58.986 0 76 17.014 76 38C76 58.988 58.986 76 38 76zM63.779 48.673L35.083 19.974A4.004 4.004 0 0 0 29.403 19.977L12.881 36.493A4.012 4.012 0 0 0 11.828 40.378A4.016 4.016 0 0 0 18.561 42.172L32.243 28.491L58.099 54.35A4.015 4.015 0 1 0 63.78 48.67V48.673z" />
    <glyph glyph-name="chevron-down"
      unicode="&#xE913;"
      horiz-adv-x="76" d="M61.272 52.832L39.581 28.479L17.889 52.832A2.98 2.98 0 0 1 15.815 53.829A2.98 2.98 0 0 1 13.647 53.037C12.412 51.896 12.333 49.967 13.44 48.714L35.401 24.047A5.598 5.598 0 0 1 43.778 24.047L65.722 48.714A3.085 3.085 0 0 1 66.498 50.774C66.498 51.645 66.133 52.469 65.516 53.038A2.962 2.962 0 0 1 61.272 52.832z" />
    <glyph glyph-name="chevron"
      unicode="&#xE914;"
      horiz-adv-x="76" d="M24.747 59.692L49.099 38L24.747 16.309A2.98 2.98 0 0 1 23.75 14.235A2.982 2.982 0 0 1 24.542 12.066C25.683 10.831 27.612 10.752 28.865 11.86L53.533 33.82A5.628 5.628 0 0 1 55.416 38.016C55.416 39.599 54.735 41.136 53.533 42.197L28.865 64.141A3.085 3.085 0 0 1 26.805 64.917C25.934 64.917 25.11 64.552 24.541 63.935A2.96 2.96 0 0 1 24.747 59.692z" />
    <glyph glyph-name="circle"
      unicode="&#xE915;"
      horiz-adv-x="76" d="M18.841 26.6S19.791 27.551 24.857 29.926C20.899 30.559 17.891 33.725 17.891 38C17.891 41.8 20.583 45.125 24.383 45.917C23.75 44.175 23.433 42.433 23.433 40.375C23.433 36.417 25.016 32.616 27.55 29.926C27.807 29.669 28.669 28.868 30.044 28.016C29.688 27.817 29.331 27.606 28.975 27.393C25.193 25.123 16.228 18.793 14.607 7.6H7.441C8.392 19.158 16.625 25.176 18.841 26.6M38.158 50.508C43.542 50.508 47.814 46.074 47.814 40.85S43.382 31.191 38.158 31.191C32.933 31.191 28.5 35.466 28.5 40.85C28.342 46.074 32.774 50.508 38.158 50.508M53.357 40.217C53.357 41.483 53.199 42.75 52.882 44.175C52.724 44.491 52.724 44.65 52.564 44.967L52.25 46.074L53.042 45.917C56.684 44.967 58.42 41.482 58.42 37.683C58.42 33.725 56.045 31.034 53.827 29.45L54.302 29.135C55.094 28.659 55.727 28.184 57.155 26.918C63.442 21.883 67.074 15.6 68.52 7.602H62.352C61.979 9.52 60.383 15.483 56.684 19.952C54.785 22.485 52.567 24.545 49.875 26.442C49.875 26.442 48.449 25.336 44.809 24.067C45.6 23.753 46.393 23.276 47.342 22.643C51.774 19.635 55.1 14.251 56.366 8.077L56.523 7.602H20.061C21.572 15.844 28.42 20.727 31.35 22.485C34.214 24.204 35.796 25.011 38.531 25.506C38.773 25.499 39.015 25.487 39.267 25.493C40.849 25.493 43.7 26.127 45.599 27.076C47.023 27.868 48.291 28.817 48.45 28.975C51.616 31.667 53.357 35.783 53.357 40.217M73.625 8.074C72.833 12.509 72.042 15.357 69.509 19.949C66.024 25.967 60.958 30.083 60.958 30.083S63.491 33.408 63.491 38C63.491 45.283 57.474 51.3 50.189 51.3C49.715 51.3 49.241 51.3 48.765 51.142H48.607L48.449 51.3C45.6 54.15 41.801 55.892 38 55.892C34.042 55.892 29.925 54.15 27.232 51.142C26.6 51.3 25.808 51.3 25.175 51.3A13.109 13.109 0 0 1 12.034 38.158C12.034 34.991 13.142 31.982 15.042 29.765L15.201 29.607L14.725 29.292C12.192 27.393 9.025 25.176 5.384 18.366C3.642 15.199 2.692 10.926 2.059 8.074A3.836 3.836 0 0 1 2.059 6.176C2.217 5.067 2.851 4.116 2.851 4.116C3.484 3.167 5.068 2.533 6.335 2.533H69.35C70.618 2.533 72.042 3.167 72.833 4.116C72.991 4.116 74.1 5.542 73.625 8.074M45.6 56.208C46.868 56.208 47.817 57.316 47.817 58.583V64.442C47.817 65.709 46.868 66.659 45.6 66.659C44.333 66.659 43.384 65.709 43.384 64.442V58.425C43.384 57.159 44.333 56.208 45.6 56.208M6.017 51.3L11.084 48.133C11.559 47.975 11.876 47.817 12.35 47.817C13.142 47.817 13.775 48.133 14.25 48.767C15.042 49.875 14.725 51.3 13.616 51.934L8.55 55.1C7.442 55.892 6.017 55.576 5.383 54.467C4.591 53.358 4.908 51.933 6.017 51.3M28.025 54.784C29.292 54.784 30.242 55.734 30.242 57V63.017C30.242 64.284 29.292 65.233 28.025 65.233S25.808 64.283 25.808 63.017V57C25.809 55.733 26.759 54.784 28.025 54.784M68.4 54.308L63.174 50.667C62.066 50.033 61.906 48.607 62.54 47.5C63.017 46.866 63.647 46.55 64.44 46.55C64.915 46.55 65.389 46.55 65.706 46.866L70.933 50.508C72.04 51.142 72.199 52.567 71.566 53.675C70.936 54.783 69.509 54.941 68.4 54.308M52.188 55.733H61.053C65.867 55.733 67.134 60.318 67.134 61.805C67.134 64.778 65.867 65.77 64.094 65.77H60.42S60.42 66.885 60.293 68.248C60.167 69.239 59.406 69.982 58.52 69.982C57.381 69.982 56.874 69.61 56.369 68.248C55.102 64.902 54.216 64.035 54.216 64.035H52.062C51.808 64.035 51.302 63.787 51.302 63.291V56.6C51.301 56.229 51.682 55.733 52.188 55.733M19 55.1C19.95 56.209 25.967 66.342 19.95 68.717C16.466 69.984 14.567 66.501 14.408 65.867C13.775 66.024 9.817 66.975 8.55 63.808C5.858 57.633 17.575 55.258 19 55.1" />
    <glyph glyph-name="close"
      unicode="&#xE916;"
      horiz-adv-x="76" d="M38 68.938C55.052 68.938 68.938 55.052 68.938 38S55.051 7.062 38 7.062C20.947 7.062 7.062 20.948 7.062 38C7.062 55.053 20.947 68.938 38 68.938M38 75.271C17.417 75.271 0.729 58.583 0.729 38C0.729 17.417 17.417 0.729 38 0.729C58.583 0.729 75.271 17.417 75.271 38C75.271 58.583 58.583 75.271 38 75.271zM42.85 37.995L53.138 48.276A3.412 3.412 0 0 1 53.138 53.12A3.413 3.413 0 0 1 48.292 53.12L38.008 42.837L27.724 53.121A3.41 3.41 0 0 1 22.88 53.121A3.41 3.41 0 0 1 22.88 48.277L33.16 37.988L22.879 27.708A3.413 3.413 0 0 1 22.879 22.862A3.427 3.427 0 0 1 27.723 22.88L37.997 33.148L48.275 22.863A3.426 3.426 0 0 1 50.696 21.868C51.584 21.868 52.455 22.198 53.136 22.863A3.414 3.414 0 0 1 53.136 27.709L42.85 37.995z" />
    <glyph glyph-name="coin"
      unicode="&#xE917;"
      horiz-adv-x="76" d="M24.828 68.083C37.438 68.083 48.072 63.143 48.072 56.049C48.072 55.594 48.029 55.149 47.943 54.712H48.072V43.915A47.867 47.867 0 0 0 51.172 44.016C61.234 44.016 70.041 40.87 73.186 35.995L74.417 35.993L74.415 32.064L74.417 31.982V19.948L74.41 19.633C74.098 12.709 63.596 7.916 51.172 7.916C38.563 7.916 27.927 12.855 27.927 19.948V20.051C26.911 19.983 25.877 19.948 24.828 19.948C12.411 19.948 1.911 24.738 1.591 31.656L1.584 31.982V57.387H1.713C2.955 63.756 13.026 68.083 24.828 68.083zM68.221 23.671C63.938 21.327 57.83 19.949 51.172 19.949C44.516 19.949 38.406 21.327 34.125 23.671L34.126 19.949L34.133 19.773C34.396 16.582 41.705 13.263 51.172 13.263C60.813 13.263 68.218 16.703 68.218 19.949L68.221 23.671zM7.78 35.922L7.782 31.984L7.789 31.806C8.052 28.615 15.362 25.297 24.828 25.297C25.89 25.297 26.927 25.339 27.928 25.417L27.927 32.008A44.11 44.11 0 0 0 26.378 31.984C19.058 31.982 12.363 33.445 7.78 35.922zM51.172 38.669C41.531 38.669 34.126 35.231 34.126 31.982C34.126 28.738 41.531 25.296 51.172 25.296S68.218 28.735 68.218 31.982S60.812 38.669 51.172 38.669zM41.875 47.738C37.594 45.394 31.485 44.016 24.828 44.016C18.17 44.016 12.063 45.394 7.781 47.738V44.016H8.195L8.203 43.838C8.484 40.647 16.281 37.33 26.378 37.33C27.439 37.33 28.475 37.367 29.479 37.435L29.478 36.457C31.727 39.512 36.247 41.837 41.875 43.058V47.738zM24.828 62.735C15.187 62.735 7.782 59.296 7.782 56.05C7.782 52.805 15.187 49.365 24.828 49.365C34.469 49.365 41.875 52.805 41.875 56.05C41.875 59.295 34.469 62.735 24.828 62.735z" />
    <glyph glyph-name="comment"
      unicode="&#xE918;"
      horiz-adv-x="76" d="M38 66.532C54.721 66.532 68.321 55.892 68.321 42.797C68.321 30.383 55.353 20.378 38.822 20.029L36.781 19.981L35.181 18.715L27.898 12.95V21.12L24.098 22.657C13.664 26.917 7.679 34.247 7.679 42.797C7.679 55.876 21.28 66.532 38 66.532M38 72.611C17.923 72.611 1.583 59.233 1.583 42.797C1.583 31.413 9.452 22.04 21.802 17.021V6.049C21.802 5.034 22.403 4.132 23.353 3.674C23.749 3.484 24.16 3.39 24.604 3.39C25.206 3.39 25.806 3.578 26.282 3.928L38.948 13.933C58.597 14.362 74.416 26.618 74.416 42.797C74.417 59.233 58.076 72.611 38 72.611z" />
    <glyph glyph-name="comments"
      unicode="&#xE919;"
      horiz-adv-x="76" d="M18.367 23.055A4.959 4.959 0 0 0 16.293 23.512C14.615 24.32 13.585 25.935 13.585 27.74V32.254C6.033 35.975 1.583 42.339 1.583 49.574C1.583 61.053 12.682 70.411 26.331 70.411C39.979 70.411 51.078 61.069 51.078 49.59C51.078 38.807 41.04 30.083 28.025 29.37L21.296 24.05C20.425 23.385 19.396 23.055 18.367 23.055zM26.331 64.188C16.119 64.188 7.79 57.633 7.79 49.574C7.79 44.269 11.464 39.742 17.86 37.144L19.792 36.353V30.795L25.761 35.513L26.806 35.529C36.923 35.736 44.841 41.911 44.841 49.574C44.871 57.633 36.559 64.188 26.331 64.188zM53.279 53.501C53.468 52.472 53.595 51.443 53.595 50.366S53.468 48.244 53.279 47.215C61.781 45.885 68.21 40.011 68.21 32.918C68.21 27.612 64.536 23.085 58.141 20.487L56.208 19.695V14.138L50.24 18.857L49.194 18.873C41.578 19.031 35.214 22.562 32.537 27.566C31.097 27.265 26.52 25.759 26.52 25.759C29.83 18.492 38.046 13.252 48.006 12.697L54.815 7.315A4.794 4.794 0 0 1 57.665 6.379C58.378 6.379 59.075 6.538 59.756 6.855C61.418 7.647 62.445 9.261 62.445 11.068V15.58C69.966 19.317 74.417 25.683 74.417 32.918C74.417 43.368 65.217 52.028 53.279 53.501z" />
    <glyph glyph-name="contest"
      unicode="&#xE91A;"
      horiz-adv-x="76" d="M54.375 47.858C51.355 47.858 48.811 45.314 48.811 42.294C48.811 39.273 51.356 36.729 54.375 36.729C57.396 36.729 59.941 39.272 59.941 42.294C59.941 45.314 57.396 47.858 54.375 47.858zM6.519 44.519V7.473C6.519 5.248 8.426 3.34 10.652 3.34H68.05C70.276 3.34 72.184 5.248 72.184 7.473V55.171C72.184 57.398 70.276 59.305 68.05 59.305H49.447C49.447 58.669 49.605 58.033 49.447 56.92C49.287 55.489 49.287 55.171 49.129 54.535H67.414V18.603L56.443 29.574C55.488 30.527 53.898 30.527 53.103 29.574L45.312 21.783L38 29.098V28.938C37.205 27.508 35.774 26.395 34.185 26.078L43.725 16.537C44.52 15.742 46.27 15.742 47.065 16.537L54.854 24.33L67.416 11.768V8.43H11.447V17.33L19.874 25.758H16.375C15.421 25.758 14.468 25.918 13.673 26.395L11.446 24.168V42.611C9.38 43.247 7.95 43.883 6.519 44.519zM31.164 58.67L28.3 56.285L29.255 52.629C29.413 52.311 29.255 51.834 28.937 51.516C28.778 51.357 28.619 51.198 28.459 51.198C28.3 51.198 28.142 51.198 27.982 51.357L24.802 53.424L21.622 51.357C21.144 51.04 20.509 51.198 20.35 51.675C20.191 51.992 20.191 52.152 20.191 52.47L21.145 56.126L17.965 58.67C17.647 58.988 17.488 59.624 17.806 60.101C17.965 60.419 18.124 60.419 18.442 60.419L22.258 60.736L23.689 64.234C24.007 64.711 24.484 64.87 24.96 64.552L25.278 64.234L26.549 60.736L30.366 60.419C30.683 60.419 31.161 60.101 31.319 59.783C31.64 59.465 31.481 58.988 31.164 58.67zM46.268 62.326V64.393C46.268 64.711 46.268 64.87 46.108 65.188C45.631 66.301 44.837 66.778 43.723 66.778H38.159V67.096V67.733V68.686V69.958C38.159 70.753 38 71.389 37.523 71.866C37.045 72.343 36.41 72.661 35.456 72.661H13.673C11.924 72.661 10.97 71.707 10.97 70.118V66.779H10.652H5.405C4.928 66.779 4.61 66.779 4.292 66.62C3.338 66.143 2.702 65.348 2.702 64.235V57.716C2.702 56.285 2.861 55.013 3.338 53.9C4.928 49.449 8.108 46.745 12.719 45.791C12.878 45.791 13.355 45.632 13.673 45.314C15.739 42.611 18.283 41.021 21.781 40.385H22.1V33.867H15.899C15.104 33.867 14.309 33.388 13.832 32.594C13.515 31.959 13.515 31.004 13.832 30.369C14.31 29.574 15.104 29.098 16.217 29.098H33.39C34.026 29.256 34.661 29.576 34.98 30.369C35.297 31.004 35.297 31.799 35.139 32.435C34.661 33.388 33.867 33.867 32.754 33.867H27.189L26.871 34.183V40.225L27.348 40.384C31.483 41.02 33.868 43.405 35.298 45.313C35.457 45.63 35.935 45.79 36.252 45.949C37.842 46.267 39.273 46.744 40.544 47.54C44.042 49.766 45.95 52.945 46.107 56.761C46.426 58.67 46.426 60.419 46.268 62.326zM10.652 51.674S10.175 51.833 9.698 52.151C8.266 53.423 7.313 55.013 7.154 56.921C6.995 58.352 7.154 62.009 7.154 62.009H10.652V51.674zM34.025 52.787C34.025 49.449 31.322 44.36 24.644 44.36C17.966 44.36 15.264 49.925 15.264 52.787V68.528H34.025V52.787zM41.498 56.92C41.338 55.171 40.385 53.105 38.953 52.15C38.476 51.673 38.159 51.673 38.159 51.673V62.009H41.657C41.656 62.009 41.656 58.352 41.498 56.92z" />
    <glyph glyph-name="cross"
      unicode="&#xE91B;"
      horiz-adv-x="76" d="M73.625 73.622C76.792 70.451 76.792 65.346 73.625 62.213L49.404 38.008L73.625 13.779C76.792 10.612 76.792 5.506 73.625 2.376A8.151 8.151 0 0 0 67.885 0.027A8.068 8.068 0 0 0 62.178 2.376L37.979 26.591L13.785 2.407A8.066 8.066 0 0 0 2.376 2.375C-0.792 5.543 -0.792 10.649 2.376 13.778L26.586 37.997L2.376 62.213C-0.792 65.384 -0.792 70.49 2.376 73.622C5.546 76.793 10.652 76.793 13.785 73.622L38 49.411L62.215 73.622C65.383 76.793 70.496 76.793 73.625 73.622z" />
    <glyph glyph-name="crown"
      unicode="&#xE91C;"
      horiz-adv-x="76" d="M52.859 38.378C52.25 38.225 51.592 38.454 51.316 38.916L39.713 58.219L36.132 58.266L23.702 38.891C23.413 38.439 22.756 38.225 22.156 38.385L8.709 41.966L7.6 41.33L15.822 17.732H61.865L68.4 41.283L67.103 41.974L52.859 38.378zM19 12.667H59.533A3.8 3.8 0 0 0 59.533 5.066H19A3.8 3.8 0 0 0 19 12.667zM38 70.934A5.066 5.066 0 0 0 43.066 65.867A5.066 5.066 0 1 0 32.934 65.866A5.067 5.067 0 0 0 38 70.934zM70.934 53.2A5.068 5.068 0 0 0 70.934 43.066A5.067 5.067 0 0 0 70.934 53.2zM5.066 53.2A5.067 5.067 0 1 0 5.066 43.065A5.067 5.067 0 0 0 5.066 53.2z" />
    <glyph glyph-name="delete"
      unicode="&#xE91D;"
      horiz-adv-x="76" d="M67.43 65.312C71.303 65.312 74.417 61.974 74.417 57.877V18.123C74.417 14.025 71.303 10.687 67.43 10.687H23.912C22.165 10.687 20.495 11.371 19.204 12.66L18.975 12.889L3.71 32.613C2.343 34.054 1.584 35.951 1.584 38C1.584 40.049 2.343 41.945 3.71 43.386L18.975 63.112L19.204 63.339C20.496 64.629 22.166 65.312 23.913 65.312H67.43zM65.874 58.583H25.408A1.889 1.889 0 0 1 24.118 58.102L10.478 40.264L10.275 40.057C9.801 39.578 9.462 38.822 9.462 38S9.733 36.491 10.275 35.942L10.478 35.736L24.118 17.897C24.473 17.581 24.933 17.409 25.408 17.417H65.874C67.096 17.417 68.046 18.583 68.046 20.023V55.976C68.046 57.417 67.096 58.583 65.874 58.583zM49.183 36.809L59.471 47.09A3.41 3.41 0 0 1 59.471 51.934C58.143 53.28 55.971 53.28 54.625 51.934L44.342 41.649L34.057 51.934A3.41 3.41 0 0 1 29.213 51.934A3.41 3.41 0 0 1 29.213 47.09L39.493 36.802L29.213 26.521C27.867 25.192 27.867 23.022 29.213 21.674A3.43 3.43 0 0 1 31.635 20.679C32.506 20.679 33.377 21.01 34.057 21.693L44.331 31.962L54.609 21.677A3.428 3.428 0 0 1 57.031 20.681C57.919 20.681 58.789 21.012 59.47 21.677A3.413 3.413 0 0 1 59.47 26.523L49.183 36.809z" />
    <glyph glyph-name="diamond"
      unicode="&#xE91E;"
      horiz-adv-x="76" d="M74.771 48.078L57.303 69.724C57.282 69.749 57.256 69.766 57.235 69.791A3.336 3.336 0 0 1 55.602 70.852A3.261 3.261 0 0 1 54.48 70.962H21.386A3.197 3.197 0 0 1 20.378 70.851A3.318 3.318 0 0 1 18.637 69.643L1.252 48.409A3.317 3.317 0 0 1 1.341 44.097L35.347 6.134C35.48 5.987 35.628 5.862 35.783 5.74C35.801 5.727 35.814 5.71 35.832 5.697A3.198 3.198 0 0 1 36.861 5.188C37.172 5.093 37.49 5.029 37.824 5.029C38.154 5.029 38.478 5.093 38.793 5.186C38.85 5.204 38.902 5.218 38.959 5.24A3.03 3.03 0 0 1 39.813 5.692C39.825 5.698 39.831 5.707 39.84 5.713C39.994 5.833 40.147 5.961 40.278 6.112L74.637 43.765C75.742 44.96 75.785 46.796 74.771 48.078zM19.79 60.631L22.802 49.847H10.975L19.79 60.631zM29.693 49.847L25.642 64.351H50.308L46.187 49.847H29.693zM44.303 43.214L37.867 20.573L31.545 43.214H44.303zM24.654 43.214L30.818 21.141L11.046 43.214H24.654zM51.182 43.214H65.104L44.864 21.003L51.182 43.214zM53.066 49.847L56.127 60.603L64.805 49.847H53.066z" />
    <glyph glyph-name="download"
      unicode="&#xE91F;"
      horiz-adv-x="76" d="M4.335 0H71.666C73.137 0 74.189 1.191 74.189 2.382V15.479H68.931V5.16H7.07V15.479H1.81V2.58C1.81 1.191 2.861 0 4.335 0zM69.348 43.457L65.563 46.83L40.734 23.414V76H35.474V23.414L10.647 46.83L6.86 43.457L38 13.89L69.348 43.457z" />
    <glyph glyph-name="exchange"
      unicode="&#xE920;"
      horiz-adv-x="76" d="M72.96 42.65H3.04A3.04 3.04 0 0 0 1.14 48.063L23.845 66.242A3.038 3.038 0 0 0 28.118 65.769A3.039 3.039 0 0 0 27.644 61.496L11.7 48.73H72.959A3.04 3.04 0 0 0 72.96 42.65zM50.257 9.09A3.04 3.04 0 0 0 48.355 14.502L64.299 27.268H3.04A3.04 3.04 0 0 0 3.04 33.348H72.96C74.251 33.348 75.4 32.532 75.827 31.313A3.038 3.038 0 0 0 74.859 27.934L52.155 9.756A3.027 3.027 0 0 0 50.257 9.09z" />
    <glyph glyph-name="external"
      unicode="&#xE921;"
      horiz-adv-x="76" d="M62.826 13.174H13.173V62.827H31.525A3.074 3.074 0 0 1 34.596 65.898A3.024 3.024 0 0 1 31.572 68.922H12.366A5.287 5.287 0 0 1 7.078 63.634V12.35A5.287 5.287 0 0 1 12.366 7.062H63.65A5.287 5.287 0 0 1 68.938 12.35V31.367A3.092 3.092 0 0 1 65.85 34.453A3.024 3.024 0 0 1 62.826 31.429V13.174zM62.684 68.922H47.327A3 3 0 0 1 44.333 65.93V65.898A3.074 3.074 0 0 1 47.404 62.827H57.492L31.018 36.29A3.739 3.739 0 0 1 31.018 31.033A3.703 3.703 0 0 1 33.646 29.941C34.644 29.941 35.579 30.321 36.275 31.033L62.827 57.633V47.31A3.115 3.115 0 0 1 65.947 44.192A2.99 2.99 0 0 1 68.939 47.183V62.684A6.255 6.255 0 0 1 62.684 68.922z" />
    <glyph glyph-name="eye"
      unicode="&#xE922;"
      horiz-adv-x="76" d="M38.016 54.435C59.137 54.435 67.577 38.966 67.926 38.318C67.972 38.222 68.037 38.111 68.083 38.016C68.083 37.937 68.083 37.827 68.068 37.763C68.005 37.652 67.941 37.541 67.893 37.431C67.403 36.463 59.421 21.581 38.015 21.581C16.387 21.581 8.454 36.781 8.058 37.572C8.011 37.668 7.963 37.746 7.915 37.842C7.915 37.921 7.931 38 7.947 38.047L8.153 38.411C8.503 39.061 16.958 54.435 38.016 54.435M38.016 60.768C13.031 60.768 2.882 42.006 2.549 41.356C1.315 39.393 1.283 36.543 2.36 34.818C2.455 34.628 11.86 15.247 38.016 15.247S73.609 34.66 73.609 34.691C74.749 36.654 74.67 39.551 73.546 41.245C73.118 42.037 63.001 60.768 38.016 60.768zM38 46.344C42.607 46.344 46.344 42.592 46.344 38S42.592 29.656 38 29.656S29.656 33.408 29.656 38S33.393 46.344 38 46.344M38 52.678C29.894 52.678 23.322 46.107 23.322 38S29.894 23.323 38 23.323S52.677 29.894 52.677 38S46.106 52.678 38 52.678z" />
    <glyph glyph-name="face"
      unicode="&#xE923;"
      horiz-adv-x="76" d="M38 76C17.046 76 0 58.954 0 38C0 17.047 17.046 0 38 0C58.953 0 76 17.047 76 38C76 58.954 58.953 76 38 76zM38 6.468C20.613 6.468 6.468 20.614 6.468 38C6.468 55.387 20.613 69.532 38 69.532C55.386 69.532 69.532 55.387 69.532 38C69.532 20.614 55.386 6.468 38 6.468zM51.894 25.381C50.689 26.589 48.578 26.591 47.37 25.383C44.987 23.019 41.846 21.716 38.503 21.716A12.517 12.517 0 0 0 29.686 25.381A3.232 3.232 0 0 1 26.593 26.21C25.492 25.915 24.625 25.048 24.33 23.946S24.351 21.661 25.158 20.853A18.763 18.763 0 0 1 38.506 15.324C43.511 15.324 48.264 17.287 51.895 20.853A3.186 3.186 0 0 1 52.833 23.118A3.185 3.185 0 0 1 51.894 25.381zM18.624 45.806A5.494 5.494 0 1 1 29.612 45.808A5.494 5.494 0 0 1 18.624 45.806zM46.049 45.806A5.493 5.493 0 1 1 57.035 45.806A5.493 5.493 0 0 1 46.049 45.806z" />
    <glyph glyph-name="flash"
      unicode="&#xE924;"
      horiz-adv-x="76" d="M58.426 42.56H17.575A2.372 2.372 0 0 0 15.2 44.935V69.429A2.372 2.372 0 0 0 17.575 71.804H58.426A2.372 2.372 0 0 0 60.801 69.429V44.934A2.382 2.382 0 0 0 58.426 42.56zM19.95 47.31H56.051V67.054H19.95V47.31zM53.787 40.169A2.37 2.37 0 0 1 51.031 38.254L48.022 21.613H29.577L25.807 38.348A2.375 2.375 0 0 1 22.973 40.137A2.377 2.377 0 0 1 21.184 37.303L25.365 18.715A2.373 2.373 0 0 1 27.677 16.862H27.708V6.57A2.373 2.373 0 0 1 30.083 4.195H47.421A2.373 2.373 0 0 1 49.796 6.57V16.863H50.002A2.347 2.347 0 0 1 52.329 18.827L55.701 37.414C55.939 38.696 55.067 39.932 53.787 40.169zM45.046 8.946H32.458V16.863H45.046V8.946zM49.844 50.571H25.84A2.373 2.373 0 0 0 23.465 52.946V61.29A2.373 2.373 0 0 0 25.84 63.665A2.372 2.372 0 0 0 28.215 61.29V55.321H49.86A2.372 2.372 0 0 0 52.235 52.946A2.386 2.386 0 0 0 49.844 50.571z" />
    <glyph glyph-name="grid"
      unicode="&#xE925;"
      horiz-adv-x="76" d="M27.297 66.61V48.624H8.629V66.61H27.297M31.524 73.672H4.401A2.827 2.827 0 0 1 1.583 70.839V44.397A2.814 2.814 0 0 1 4.401 41.579H31.507A2.815 2.815 0 0 1 34.326 44.397V70.839A2.802 2.802 0 0 1 31.524 73.672zM67.37 66.61V48.624H48.703V66.61H67.37M71.6 73.672H44.476A2.814 2.814 0 0 1 41.659 70.854V44.412A2.813 2.813 0 0 1 44.476 41.594H71.582A2.815 2.815 0 0 1 74.401 44.412V70.839A2.803 2.803 0 0 1 71.6 73.672zM27.297 27.376V9.389H8.629V27.376H27.297M31.524 34.438H4.401A2.828 2.828 0 0 1 1.583 31.604V5.162A2.813 2.813 0 0 1 4.401 2.345H31.507A2.814 2.814 0 0 1 34.326 5.162V31.604A2.803 2.803 0 0 1 31.524 34.438zM67.37 27.376V9.389H48.703V27.376H67.37M71.6 34.438H44.476A2.814 2.814 0 0 1 41.659 31.621V5.178A2.812 2.812 0 0 1 44.476 2.361H71.582A2.815 2.815 0 0 1 74.401 5.178V31.62A2.8 2.8 0 0 1 71.6 34.438z" />
    <glyph glyph-name="group"
      unicode="&#xE926;"
      horiz-adv-x="76" d="M75.896 16.657C73.294 29.59 66.3 36.362 60.888 39.775A32.084 32.084 0 0 1 56.313 42.152C60.453 45.344 63.334 52.215 63.334 58.05C63.334 67.731 55.74 73.882 46.621 73.882C42.428 73.882 38.592 72.211 35.673 69.465A18.573 18.573 0 0 1 33.254 69.639C24.382 69.639 16.938 63.442 15.021 55.146A18.69 18.69 0 0 1 14.621 49.186C14.632 49.061 14.646 48.936 14.66 48.812L14.68 48.648A18.031 18.031 0 0 1 14.954 47.008A18.748 18.748 0 0 1 22.253 35.795A37.37 37.37 0 0 1 17.106 33.274C10.98 29.632 3.064 22.414 0.118 8.623A5.355 5.355 0 0 1 1.195 4.128A5.367 5.367 0 0 1 5.406 2.117H61.102A5.37 5.37 0 0 1 65.314 4.128A5.349 5.349 0 0 1 66.39 8.623A46.352 46.352 0 0 1 65.921 10.556H71.226C72.679 10.556 74.037 11.24 74.946 12.442C75.854 13.629 76.19 15.173 75.896 16.657zM33.254 64.02C40.474 64.02 46.33 58.162 46.33 50.942C46.33 43.858 40.671 38.084 33.653 37.872L33.254 37.866C26.051 37.866 20.177 43.724 20.177 50.942C20.177 58.161 26.034 64.02 33.254 64.02zM35.803 7.827V7.831L33.254 7.827L30.705 7.831V7.827L5.801 7.8C10.899 30.678 30.325 32.213 30.53 32.213C31.062 32.213 31.537 32.219 31.968 32.227L32.336 32.235C32.64 32.221 32.946 32.214 33.253 32.214L33.728 32.22L34.17 32.236C34.695 32.223 35.289 32.215 35.978 32.215C36.184 32.215 55.608 30.68 60.706 7.802L35.803 7.827zM64.167 15.907C60.445 25.067 54.344 30.337 49.402 33.273A36.912 36.912 0 0 1 44.256 35.794C48.347 38.776 51.187 43.377 51.828 48.648L51.834 48.698L51.873 49.045L51.887 49.188L51.898 49.315A18.922 18.922 0 0 1 51.569 54.784C50.41 60.297 46.811 64.908 41.965 67.47A13.219 13.219 0 0 0 46.711 68.342C53.267 68.342 58.584 63.024 58.584 56.468C58.584 51.752 55.823 48.085 51.84 46.398C51.147 43.331 49.621 40.673 47.568 38.798C47.998 38.789 48.479 38.781 49.028 38.781C49.211 38.781 66.372 37.341 70.876 15.885L64.167 15.907z" />
    <glyph glyph-name="hash"
      unicode="&#xE927;"
      horiz-adv-x="76" d="M62.542 57H55.661L57.551 67.718A3.958 3.958 0 1 1 49.755 69.092L47.623 57H35.078L36.968 67.718A3.959 3.959 0 1 1 29.172 69.092L27.04 57H19.792A3.958 3.958 0 1 1 19.791 49.084H25.643L21.735 26.917H13.459A3.957 3.957 0 0 1 9.501 22.958A3.956 3.956 0 0 1 13.458 19H20.338L18.448 8.281A3.958 3.958 0 1 1 26.244 6.907L28.377 19H40.922L39.032 8.281A3.958 3.958 0 1 1 46.828 6.907L48.961 19H56.208A3.958 3.958 0 1 1 56.208 26.917H50.357L54.265 49.084H62.54A3.957 3.957 0 0 1 66.498 53.042A3.954 3.954 0 0 1 62.542 57zM42.318 26.917H29.773L33.682 49.084H46.226L42.318 26.917z" />
    <glyph glyph-name="heart"
      unicode="&#xE928;"
      horiz-adv-x="76" d="M69.288 64.565C64.741 68.811 58.949 71.149 52.978 71.149C47.571 71.149 42.383 69.181 38.29 65.592C33.914 69.231 28.699 71.149 23.164 71.149C17.144 71.149 11.325 68.811 6.759 64.547C2.4 60.207 0 54.525 0 48.55S2.4 36.895 6.759 32.553L32.301 7.115A7.695 7.695 0 0 1 37.762 4.849A7.7 7.7 0 0 1 43.223 7.115L68.728 32.517C73.223 36.469 75.802 41.939 75.99 47.918C76.181 54.066 73.745 60.127 69.288 64.565zM64.848 36.971L39.488 11.885C38.727 11.135 38.155 11.127 37.381 11.893L11.465 36.993C8.289 39.891 6.468 44.051 6.468 48.402C6.468 52.755 8.289 56.914 11.489 59.836C14.513 62.827 18.652 64.474 23.144 64.474C27.387 64.474 31.485 63 34.687 60.321L38.438 57.228L42.22 60.348C45.324 63.182 49.148 64.681 53.276 64.681C57.663 64.681 61.972 62.953 65.34 59.885C71.07 53.188 70.85 42.907 64.848 36.971z" />
    <glyph glyph-name="hide"
      unicode="&#xE929;"
      horiz-adv-x="43" d="M39.37 20.65A28.46 28.46 0 0 0 42.43 17.5A27.84 27.84 0 0 0 37.43 12.79L42.52 6.79A2 2 0 0 0 39.52 4.08L39.41 4.2L34 10.65A27.34 27.34 0 0 0 27.26 8.17L30.26 2.99A2 2 0 0 0 26.87 0.87L26.78 1L23 7.55C22.4 7.55 21.8 7.5 21.19 7.5L19.94 7.5L16.22 0.98L16.13 0.85A2 2 0 0 0 12.74 2.97H12.74L15.64 8.04A27.69 27.69 0 0 0 9.14 10.25L4 4.2L3.89 4.08A2 2 0 0 0 1 6.79H1L5.65 12.32A27.81 27.81 0 0 0 0 17.5A27.41 27.41 0 0 0 2.79 20.41A14.42 14.42 0 0 1 6.2 16.92A23.39 23.39 0 0 1 20.71 11.5H21.66A23.35 23.35 0 0 1 36.26 16.95L36.63 17.26L36.9 17.5L36.72 17.65A13.56 13.56 0 0 1 39.25 20.46z" />
    <glyph glyph-name="holiday"
      unicode="&#xE92A;"
      horiz-adv-x="76" d="M37.84 69.958C55.488 69.958 69.798 55.648 69.798 38C69.798 20.354 55.486 6.201 37.84 6.201C20.192 6.201 6.042 20.512 6.042 38C6.042 55.49 20.192 69.958 37.84 69.958M37.84 75.523C17.171 75.523 0.477 58.67 0.477 38S17.171 0.479 38 0.479S75.363 17.33 75.363 38S58.51 75.523 37.84 75.523zM26.393 48.017C27.824 50.402 29.096 53.105 30.209 55.649C30.686 56.603 30.845 58.829 28.618 59.465C26.074 60.26 24.803 58.511 24.484 57.716C21.94 52.151 18.283 47.063 14.626 42.929C13.036 41.18 13.355 39.114 13.831 38.159C14.468 36.886 16.852 36.251 18.283 37.681C19.238 38.476 19.396 38.794 20.35 39.908V19.24C20.35 16.535 21.622 15.263 23.053 15.263C24.643 15.263 26.074 16.534 26.074 18.284L26.393 48.017zM58.352 27.508C54.537 31.483 51.196 37.206 48.971 42.929H56.283C57.873 42.929 58.986 44.2 58.986 45.631V45.95A2.511 2.511 0 0 1 56.443 48.495H46.426V56.444C46.426 58.034 45.155 59.465 43.565 59.465S40.705 58.034 40.705 56.444V48.495H31.165A2.85 2.85 0 0 1 28.302 45.632V45.474C28.302 43.884 29.574 42.771 31.006 42.771H38.319C36.092 37.207 32.118 30.848 28.301 26.555C27.347 25.442 27.347 23.694 28.301 22.579C29.414 21.466 31.164 21.308 32.277 22.579C35.298 25.919 38.16 30.21 40.386 34.978H40.544V17.648A2.85 2.85 0 0 1 43.407 14.788A2.848 2.848 0 0 1 46.268 17.648V35.773H46.425C48.491 31.002 50.876 26.711 53.738 23.213C54.849 21.781 56.919 21.623 58.189 23.054C59.465 24.486 59.465 26.234 58.352 27.508z" />
    <glyph glyph-name="home"
      unicode="&#xE92B;"
      horiz-adv-x="76" d="M60.404 42.734A2.74 2.74 0 0 1 57.665 39.994V12.524H18.335V39.994A2.74 2.74 0 0 1 15.596 42.734A2.75 2.75 0 0 1 12.857 39.994V9.784A2.739 2.739 0 0 1 15.596 7.046H60.39A2.74 2.74 0 0 1 63.128 9.784V39.994A2.717 2.717 0 0 1 60.404 42.734zM69.682 45.901L39.853 68.4A2.757 2.757 0 0 1 36.559 68.416L6.333 45.917A2.736 2.736 0 0 1 5.763 42.085A2.735 2.735 0 0 1 9.595 41.516L38.19 62.795L66.373 41.531C66.865 41.151 67.449 40.976 68.019 40.976C68.843 40.976 69.666 41.356 70.205 42.069A2.715 2.715 0 0 1 69.682 45.901z" />
    <glyph glyph-name="info"
      unicode="&#xE92C;"
      horiz-adv-x="76" d="M38 74.417C58.113 74.417 74.417 58.113 74.417 38C74.417 17.887 58.113 1.583 38 1.583C17.888 1.583 1.583 17.887 1.583 38C1.583 58.112 17.888 74.417 38 74.417zM38 68.083C21.386 68.083 7.917 54.614 7.917 38S21.386 7.917 38 7.917C54.613 7.917 68.083 21.386 68.083 38S54.613 68.083 38 68.083zM38.792 43.146A3.954 3.954 0 0 0 42.74 39.449L42.75 39.188V19.396A3.958 3.958 0 0 0 34.842 19.135L34.833 19.396V39.188A3.958 3.958 0 0 0 38.792 43.146zM34.042 52.25A4.75 4.75 0 0 1 43.542 52.25A4.75 4.75 0 0 1 34.042 52.25" />
    <glyph glyph-name="input"
      unicode="&#xE92D;"
      horiz-adv-x="76" d="M70.521 64.046C72.39 62.178 73.325 59.945 73.325 57.333S72.39 52.472 70.521 50.604L24.447 4.527L8.756 2.707A6.237 6.237 0 0 0 3.516 4.607A6.27 6.27 0 0 0 1.616 9.865L3.436 25.555L49.51 71.63A9.201 9.201 0 0 0 56.239 74.432C58.852 74.432 61.1 73.498 62.953 71.63L70.521 64.046zM21.375 10.972L54.275 43.874L42.797 55.354L9.896 22.451L8.36 9.421L21.375 10.972zM65.771 55.37A2.708 2.708 0 0 1 66.626 57.333C66.626 58.078 66.326 58.79 65.771 59.296L58.203 66.864A2.712 2.712 0 0 1 56.239 67.719C55.495 67.719 54.783 67.418 54.275 66.864L47.546 60.135L59.025 48.656L65.771 55.37zM38.555 8.106H71.155C73.326 8.106 74.418 7.013 74.418 4.845C74.418 2.674 73.326 1.582 71.155 1.582H38.555C36.385 1.582 35.293 2.674 35.293 4.845C35.293 7.029 36.369 8.106 38.555 8.106z" />
    <glyph glyph-name="keyboard"
      unicode="&#xE92E;"
      horiz-adv-x="76" d="M19.171 45.247A1.462 1.462 0 0 0 17.714 46.704V52.457C17.714 53.259 18.37 53.914 19.171 53.914H22.085C22.886 53.914 23.542 53.259 23.542 52.457V46.667C23.542 45.902 22.886 45.247 22.085 45.247H19.171zM19.171 32.209A1.462 1.462 0 0 0 17.714 33.667V39.457C17.714 40.258 18.37 40.914 19.171 40.914H22.085C22.886 40.914 23.542 40.258 23.542 39.457V33.667C23.542 32.865 22.886 32.209 22.085 32.209H19.171zM30.789 45.247A1.46 1.46 0 0 0 29.333 46.704V52.457A1.46 1.46 0 0 0 30.789 53.914H33.667A1.46 1.46 0 0 0 35.123 52.457V46.667C35.087 45.865 34.468 45.247 33.667 45.247H30.789zM30.789 32.209A1.461 1.461 0 0 0 29.333 33.667V39.457A1.46 1.46 0 0 0 30.789 40.914H33.667A1.46 1.46 0 0 0 35.123 39.457V33.667C35.087 32.865 34.468 32.209 33.667 32.209H30.789zM55.37 23.506A1.46 1.46 0 0 0 53.914 22.049H22.085A1.462 1.462 0 0 0 20.627 23.506V24.962C20.627 25.764 21.283 26.419 22.085 26.419H53.914A1.46 1.46 0 0 0 55.37 24.962V23.506zM42.369 45.247A1.461 1.461 0 0 0 40.912 46.704V52.457A1.46 1.46 0 0 0 42.369 53.914H45.247C46.048 53.914 46.704 53.259 46.704 52.457V46.667C46.668 45.865 46.048 45.247 45.247 45.247H42.369zM42.369 32.209A1.461 1.461 0 0 0 40.912 33.667V39.457C40.912 40.258 41.567 40.914 42.369 40.914H45.247C46.048 40.914 46.704 40.258 46.704 39.457V33.667C46.668 32.865 46.048 32.209 45.247 32.209H42.369zM53.914 45.247A1.462 1.462 0 0 0 52.457 46.704V52.457C52.457 53.259 53.113 53.914 53.914 53.914H56.791C57.592 53.914 58.248 53.259 58.248 52.457V46.667C58.248 45.865 57.592 45.247 56.791 45.247H53.914zM53.914 32.209A1.462 1.462 0 0 0 52.457 33.667V39.457C52.457 40.258 53.113 40.914 53.914 40.914H56.791C57.592 40.914 58.248 40.258 58.248 39.457V33.667C58.248 32.865 57.592 32.209 56.791 32.209H53.914zM5.99 38C5.99 20.338 20.338 5.99 38 5.99S70.01 20.338 70.01 38C70.01 55.663 55.661 70.01 38 70.01C20.337 70.01 5.99 55.663 5.99 38zM1.583 38C1.583 58.102 17.897 74.417 38 74.417S74.417 58.102 74.417 38S58.102 1.583 38 1.583S1.583 17.898 1.583 38z" />
    <glyph glyph-name="lease"
      unicode="&#xE92F;"
      horiz-adv-x="76" d="M68.954 59.486L40.977 72.675A7.02 7.02 0 0 1 34.913 72.675L7.094 59.502C4.75 58.393 3.294 56.145 3.294 53.643V16.546C3.294 16.103 3.405 15.689 3.588 15.317A2.753 2.753 0 0 1 6.334 12.794H15.96C16.641 12.794 17.29 12.604 17.718 12.272L26.948 5.178C29.117 3.516 31.951 2.598 34.944 2.598H54.056C54.244 2.558 54.44 2.536 54.641 2.536H67.244C70.3 2.536 72.786 5.02 72.769 8.045V53.628C72.77 56.129 71.313 58.378 68.954 59.486zM30.321 9.579L21.09 16.673C19.697 17.734 17.876 18.335 15.96 18.335H8.898V30.559H27.423C29.529 30.559 32.411 29.877 33.344 29.15L38.891 24.836C39.051 24.671 39.236 24.533 39.433 24.414L39.614 24.273C40.091 23.656 40.961 22.184 39.804 20.774C39.376 20.252 38.855 20.157 37.762 20.378A3.862 3.862 0 0 1 37.081 20.45L31.729 24.258C30.525 25.112 28.832 24.844 27.977 23.624C27.122 22.421 27.392 20.727 28.61 19.872L37.334 13.665C37.632 13.439 37.972 13.301 38.319 13.226L38.411 13.159H54.593C55.036 13.159 57.283 13.048 57.283 10.753C57.283 9.107 56.856 8.155 54.624 8.155H34.944C33.187 8.153 31.508 8.678 30.321 9.579zM41.986 29.403L37.009 33.302C37.292 33.261 37.578 33.233 37.872 33.233A5.986 5.986 0 1 1 31.887 39.218C31.887 37.621 32.516 36.175 33.535 35.102C31.364 35.811 28.957 36.1 27.406 36.1H24.446V47.943H30.843L34.627 52.424H41.071L44.648 47.943H51.267V29.403H41.986zM62.51 8.139C62.721 8.942 62.829 9.821 62.826 10.767C62.826 15.976 58.678 18.716 54.594 18.716H45.062C46.04 20.557 46.091 22.405 45.718 24.02H52.504C54.784 24.02 56.651 25.888 56.651 28.184V49.178A4.152 4.152 0 0 1 52.504 53.326H47.232L45.078 56.002A4.719 4.719 0 0 1 41.342 57.807H34.296A4.734 4.734 0 0 1 30.686 56.128L28.327 53.326H23.213A4.152 4.152 0 0 1 19.065 49.178V36.1H8.898V53.659C8.898 53.975 9.135 54.276 9.5 54.451L37.319 67.624C37.731 67.814 38.19 67.814 38.601 67.624L66.579 54.451C66.943 54.277 67.181 53.976 67.181 53.659L67.244 8.138H62.51z" />
    <glyph glyph-name="lens-01"
      unicode="&#xE930;"
      horiz-adv-x="76" d="M28.357 25.684A2.763 2.763 0 0 0 25.586 28.455V49.32C25.586 50.856 26.82 52.091 28.357 52.091S31.128 50.856 31.128 49.32V28.436A2.757 2.757 0 0 0 28.357 25.684zM37.988 25.684A2.763 2.763 0 0 0 35.217 28.455V49.32C35.217 50.856 36.452 52.091 37.988 52.091S40.759 50.856 40.759 49.32V28.436C40.758 26.917 39.508 25.684 37.988 25.684zM47.619 25.684A2.763 2.763 0 0 0 44.848 28.455V49.32A2.764 2.764 0 0 0 47.619 52.091A2.763 2.763 0 0 0 50.39 49.32V28.436A2.76 2.76 0 0 0 47.619 25.684zM57.206 57.063H18.794A2.372 2.372 0 0 0 16.419 59.438V69.445C16.419 70.253 16.815 70.997 17.495 71.424A2.367 2.367 0 0 0 19.744 71.614L24.588 69.508C26.506 70.822 30.543 72.675 38 72.691C45.395 72.691 49.525 70.791 51.488 69.493L56.255 71.599C56.984 71.932 57.838 71.852 58.52 71.424A2.4 2.4 0 0 0 59.598 69.429V59.422A2.405 2.405 0 0 0 57.206 57.063zM21.169 61.813H54.848V65.803L52.123 64.6A2.386 2.386 0 0 0 49.416 65.154S46.424 67.973 38.016 67.973C29.434 67.957 26.806 65.249 26.775 65.218C26.094 64.395 25.017 64.173 24.036 64.6L21.17 65.851L21.169 61.813zM57.223 55.559A2.373 2.373 0 0 1 54.848 53.184V21.581H21.423C21.339 21.596 21.255 21.613 21.169 21.618V53.184C21.169 54.498 20.108 55.559 18.794 55.559S16.419 54.498 16.419 53.184V19.206A2.373 2.373 0 0 1 18.794 16.831H19.717L22.863 11.48V5.668A2.373 2.373 0 0 1 25.238 3.293H50.905C52.205 3.293 53.28 4.355 53.28 5.668V11.647L56.257 16.834H57.208A2.401 2.401 0 0 1 59.601 19.209V53.184A2.377 2.377 0 0 1 57.223 55.559zM27.613 8.043V9.77H48.53V8.043H27.613zM49.448 14.52H26.672A2.048 2.048 0 0 1 26.494 14.647L25.212 16.834H50.772L49.448 14.52z" />
    <glyph glyph-name="lens-02"
      unicode="&#xE931;"
      horiz-adv-x="76" d="M57.206 57.317H18.794A2.372 2.372 0 0 0 16.419 59.692V69.698A2.372 2.372 0 0 0 18.794 72.073H57.222A2.372 2.372 0 0 0 59.597 69.698V59.692C59.581 58.393 58.52 57.317 57.206 57.317zM21.169 62.067H54.847V67.323H21.169V62.067zM57.223 55.401A2.373 2.373 0 0 1 54.848 53.026V18.255H21.543A2.692 2.692 0 0 1 21.169 18.294V53.026A2.373 2.373 0 0 1 18.794 55.401A2.373 2.373 0 0 1 16.419 53.026V15.88A2.367 2.367 0 0 1 18.683 13.516V5.668A2.373 2.373 0 0 1 21.058 3.293H54.783A2.373 2.373 0 0 1 57.158 5.668V13.505H57.206C58.519 13.505 59.581 14.582 59.598 15.88V53.026A2.372 2.372 0 0 1 57.223 55.401zM52.408 8.043H23.433V13.505H52.408V8.043zM28.136 22.516A2.763 2.763 0 0 0 25.365 25.287V49.32C25.365 50.856 26.599 52.091 28.136 52.091S30.907 50.856 30.907 49.32V25.27C30.906 23.75 29.656 22.516 28.136 22.516zM37.937 22.516A2.764 2.764 0 0 0 35.166 25.287V49.32C35.166 50.856 36.401 52.091 37.937 52.091S40.708 50.856 40.708 49.32V25.27A2.76 2.76 0 0 0 37.937 22.516zM47.754 22.516A2.763 2.763 0 0 0 44.983 25.287V49.32A2.763 2.763 0 0 0 47.754 52.091A2.764 2.764 0 0 0 50.525 49.32V25.27A2.76 2.76 0 0 0 47.754 22.516z" />
    <glyph glyph-name="light"
      unicode="&#xE932;"
      horiz-adv-x="76" d="M46.551 8.074H29.213A3.074 3.074 0 0 1 26.141 5.004A3.074 3.074 0 0 1 29.213 1.933H46.551A3.072 3.072 0 0 1 49.621 5.004A3.072 3.072 0 0 1 46.551 8.074zM37.89 59.359C26.22 59.359 16.736 49.875 16.736 38.206C16.736 30.321 21.075 23.148 28.073 19.475C29.434 18.762 31.113 19.285 31.826 20.647A2.779 2.779 0 0 1 30.654 24.4C25.508 27.107 22.294 32.395 22.294 38.207C22.294 46.805 29.293 53.803 37.89 53.803C46.486 53.803 53.485 46.805 53.485 38.207C53.485 32.395 50.287 27.107 45.126 24.4A2.781 2.781 0 0 1 43.954 20.647A2.76 2.76 0 0 1 46.425 19.159C46.867 19.159 47.295 19.27 47.724 19.475C54.705 23.149 59.059 30.322 59.059 38.206C59.043 49.875 49.543 59.359 37.89 59.359zM46.551 15.833H29.213A3.074 3.074 0 0 1 26.141 12.763A3.075 3.075 0 0 1 29.213 9.691H46.551A3.074 3.074 0 0 1 49.621 12.763A3.073 3.073 0 0 1 46.551 15.833zM8.787 39.662H4.655C2.961 39.662 1.584 38.301 1.584 36.606S2.961 33.534 4.655 33.534H8.787C10.482 33.534 11.859 34.912 11.859 36.606S10.482 39.662 8.787 39.662zM37.969 63.792A3.075 3.075 0 0 1 41.04 66.864V70.997A3.074 3.074 0 0 1 37.969 74.068A3.075 3.075 0 0 1 34.897 70.997V66.865C34.912 65.17 36.274 63.792 37.969 63.792zM17.243 59.042L14.25 62.035A3.06 3.06 0 0 1 9.911 62.035A3.058 3.058 0 0 1 9.911 57.697L12.904 54.704A3.044 3.044 0 0 1 15.073 53.802C15.865 53.802 16.64 54.103 17.242 54.704C18.446 55.908 18.446 57.855 17.243 59.042zM66.673 61.513A3.057 3.057 0 0 1 62.336 61.513L59.344 58.52A3.058 3.058 0 0 1 59.344 54.182A3.037 3.037 0 0 1 61.512 53.279A3.05 3.05 0 0 1 63.683 54.182L66.673 57.174A3.089 3.089 0 0 1 66.673 61.513zM71.346 39.662H67.213A3.075 3.075 0 0 1 64.141 36.59A3.074 3.074 0 0 1 67.213 33.52H71.346A3.074 3.074 0 0 1 74.417 36.59A3.075 3.075 0 0 1 71.346 39.662z" />
    <glyph glyph-name="like"
      unicode="&#xE933;"
      horiz-adv-x="76" d="M60.862 52.282H44.017S44.176 57.855 42.909 64.094C41.769 69.715 37.906 72.976 33.884 72.976C30.211 72.976 26.411 70.268 24.353 64.141C18.986 48.119 15.059 43.811 15.059 43.811H5.336A3.725 3.725 0 0 1 1.584 40.075V7.41A4.368 4.368 0 0 1 5.954 3.041H15.771C15.85 3.041 15.913 3.025 15.993 3.025C16.072 3.025 16.136 3.041 16.215 3.041H49.038C73.943 3.041 74.418 32.617 74.418 32.617C74.417 47.342 69.444 52.282 60.862 52.282zM7.663 37.746H12.952V9.119H7.663V37.746zM65.485 20.267C62.209 12.763 56.827 9.12 49.037 9.12H19.032V39.156L19.538 39.71C20.346 40.581 24.605 45.79 30.099 62.209C31.193 65.455 32.776 66.896 33.869 66.896C34.961 66.896 36.402 65.486 36.94 62.874C38.047 57.443 37.937 52.487 37.937 52.44L37.763 46.185H60.863C64.189 46.185 68.322 46.185 68.338 32.68C68.321 32.221 68.068 26.156 65.485 20.267z" />
    <glyph glyph-name="list"
      unicode="&#xE934;"
      horiz-adv-x="76" d="M66.627 66.326V38.728H9.151V66.326H66.627M70.996 73.388H4.782A2.69 2.69 0 0 1 2.09 70.696V34.359A2.689 2.689 0 0 1 4.782 31.668H70.996A2.689 2.689 0 0 1 73.688 34.359V70.68A2.704 2.704 0 0 1 70.996 73.388zM47.135 2.613H5.32A3.534 3.534 0 0 0 1.789 6.143A3.533 3.533 0 0 0 5.32 9.672H47.119A3.534 3.534 0 0 0 50.651 6.143A3.52 3.52 0 0 0 47.135 2.613zM70.885 16.609H5.114C3.166 16.609 1.583 18.177 1.583 20.14S3.166 23.67 5.114 23.67H70.885C72.833 23.67 74.417 22.087 74.417 20.14S72.833 16.609 70.885 16.609z" />
    <glyph glyph-name="location"
      unicode="&#xE935;"
      horiz-adv-x="76" d="M38 68.353C43.779 68.353 49.368 65.946 53.737 61.592C57.918 57.428 60.308 52.124 60.308 47.026C60.308 30.544 44.902 14.646 37.936 8.313C30.97 14.473 15.691 29.926 15.691 47.025C15.691 52.123 18.082 57.427 22.262 61.591C26.632 65.946 32.221 68.353 38 68.353M38 73.894C30.748 73.894 23.782 70.917 18.351 65.518C13.142 60.325 10.149 53.58 10.149 47.025C10.149 26.379 28.895 8.662 35.625 2.961A3.565 3.565 0 0 1 40.312 3.009C47.008 8.866 65.835 27.107 65.835 47.026C65.835 53.58 62.842 60.326 57.634 65.519C52.234 70.917 45.252 73.894 38 73.894zM37.984 56.367C32.38 56.367 27.803 51.791 27.803 46.186C27.803 40.582 32.379 36.006 37.984 36.006C43.588 36.006 48.165 40.581 48.165 46.186C48.181 51.791 43.605 56.367 37.984 56.367zM37.984 29.926C29.022 29.926 21.739 37.224 21.739 46.17S29.022 62.431 37.984 62.431S54.229 55.131 54.229 46.185C54.229 37.24 46.946 29.926 37.984 29.926z" />
    <glyph glyph-name="lock"
      unicode="&#xE936;"
      horiz-adv-x="76" d="M38 32.95A4.063 4.063 0 0 0 42.055 28.895V20.805C42.055 18.573 40.233 16.751 38 16.751S33.946 18.572 33.946 20.805V28.895A4.063 4.063 0 0 0 38 32.95zM66.327 49.131H60.263V53.169C60.263 65.518 50.334 75.43 38 75.43S15.738 65.518 15.738 53.168V49.13H9.674C5.225 49.13 1.584 45.488 1.584 41.039V8.661C1.584 4.211 5.225 0.568 9.674 0.585H66.327C70.775 0.585 74.417 4.227 74.417 8.677V41.04C74.417 45.489 70.775 49.131 66.327 49.131zM23.845 53.184C23.845 61.069 30.115 67.339 38 67.339C45.886 67.339 52.154 61.069 52.154 53.184V49.131H23.845V53.184zM66.327 8.678H9.674V41.04H15.738V41.024H60.262V41.04H66.326V8.678z" />
    <glyph glyph-name="lv"
      unicode="&#xE937;"
      horiz-adv-x="76" d="M37.208 17.418L34.041 23.751L15.66 23.185V58.584H8.708V17.417L37.208 17.418zM50.957 17.418L62.541 47.501H55.02L47.499 25.681L39.978 47.501H32.457L44.041 17.418H50.957zM62.51 17.418C63.843 17.418 64.932 17.901 65.901 18.749C66.807 19.717 67.293 20.808 67.293 22.137C67.293 23.47 66.81 24.618 65.901 25.527C64.932 26.496 63.843 26.92 62.51 26.92C61.182 26.92 60.031 26.496 59.184 25.527C58.215 24.619 57.791 23.47 57.791 22.137C57.791 20.808 58.215 19.717 59.184 18.749C60.029 17.901 61.182 17.418 62.51 17.418z" />
    <glyph glyph-name="mail"
      unicode="&#xE938;"
      horiz-adv-x="76" d="M69.509 69.002H6.492A4.912 4.912 0 0 1 1.584 64.093V11.906A4.913 4.913 0 0 1 6.492 6.998H69.509A4.914 4.914 0 0 1 74.417 11.906V64.093C74.432 66.801 72.215 69.002 69.509 69.002zM64.084 62.842L41.705 40.248C39.916 38.443 37.224 38.428 35.403 40.185L12.142 62.842H64.084zM7.743 13.142V58.53L31.113 35.767C33.204 33.742 35.863 32.727 38.523 32.727C41.263 32.727 43.969 33.803 46.075 35.924L68.274 58.323V13.14H7.743z" />
    <glyph glyph-name="medal"
      unicode="&#xE939;"
      horiz-adv-x="76" d="M34.708 16.887A1.58 1.58 0 0 0 33.397 17.494A1.58 1.58 0 0 0 33.125 18.914L33.87 21.699L31.669 23.537A1.583 1.583 0 0 0 31.147 25.264A1.583 1.583 0 0 0 32.588 26.387L35.469 26.543L36.514 29.236A1.585 1.585 0 0 0 38.031 30.459A1.579 1.579 0 0 0 39.585 29.283L40.631 26.592L43.514 26.436A1.585 1.585 0 0 0 44.445 23.584L42.118 21.699L42.863 18.914A1.585 1.585 0 0 0 42.245 17.203A1.59 1.59 0 0 0 40.439 17.203L38.001 18.787L35.579 17.203A1.717 1.717 0 0 0 34.708 16.887zM57.207 72.303H18.795A3.167 3.167 0 0 1 15.628 69.136V50.262A3.166 3.166 0 0 1 17.29 47.491L29.439 40.844C22.929 37.667 18.431 31.001 18.431 23.265C18.431 12.458 27.193 3.697 38.001 3.697C48.807 3.705 57.563 12.463 57.568 23.265C57.568 31 53.072 37.665 46.56 40.845L58.708 47.492A3.161 3.161 0 0 1 60.37 50.263V69.137A3.162 3.162 0 0 1 57.207 72.303zM54.039 65.97V64.118H22.959C22.612 64.118 22.282 64.059 21.961 63.975V65.97H54.039zM51.236 23.266C51.236 15.955 45.31 10.03 38.001 10.03C30.691 10.03 24.765 15.958 24.765 23.266C24.765 30.577 30.691 36.504 38.001 36.504C45.309 36.496 51.229 30.572 51.236 23.266zM38.001 43.407L21.962 52.147V56.343C22.282 56.259 22.613 56.2 22.96 56.2H54.041V52.147L38.001 43.407z" />
    <glyph glyph-name="mic"
      unicode="&#xE93A;"
      horiz-adv-x="76" d="M38.219 67.148C34.196 67.148 30.933 64.373 30.933 60.967V39.323C30.933 35.909 34.195 33.14 38.219 33.14C42.242 33.14 45.505 35.915 45.505 39.323V60.967C45.505 64.373 42.242 67.148 38.219 67.148zM38.219 73.625C45.807 73.625 51.984 68.012 51.984 61.1V39.191C51.984 32.286 45.807 26.666 38.219 26.666C30.623 26.666 24.454 32.28 24.454 39.191V61.107C24.455 68.012 30.623 73.625 38.219 73.625zM60.964 51.839A3.531 3.531 0 0 1 57.431 48.303V42.069C57.431 31.917 50.012 22.86 39.909 21.893C28.326 20.797 18.572 29.881 18.572 41.242V48.304C18.572 50.259 16.99 51.84 15.036 51.84S11.5 50.258 11.5 48.303V41.241C11.5 27.827 21.52 16.749 34.459 15.011V9.448H23.862C21.908 9.448 20.327 7.866 20.327 5.912S21.908 2.376 23.862 2.376H52.138A3.532 3.532 0 0 1 55.671 5.911A3.53 3.53 0 0 1 52.145 9.446H41.54V14.977C54.87 16.715 64.499 28.712 64.499 42.167V48.311A3.526 3.526 0 0 1 60.964 51.839" />
    <glyph glyph-name="minus"
      unicode="&#xE93B;"
      horiz-adv-x="76" d="M38 76C17.013 76 0 58.987 0 38C0 17.012 17.013 0 38 0C58.988 0 76 17.012 76 38C76 58.987 58.988 76 38 76zM56.32 34.518H19.68A3.482 3.482 0 0 0 16.187 38.013A3.492 3.492 0 0 0 19.692 41.494L56.32 41.506A3.48 3.48 0 0 0 59.814 38.013A3.478 3.478 0 0 0 56.32 34.518z" />
    <glyph glyph-name="movie"
      unicode="&#xE93C;"
      horiz-adv-x="76" d="M42.051 32.301L25.849 24.158V40.443zM68.416 50.723L56.632 44.165V48.586C56.632 52.184 53.732 55.1 50.151 55.1H43.474L49.543 62.267A2.574 2.574 0 0 1 45.793 65.782L45.613 65.59L36.731 55.1H26.042L17.173 65.635L17.003 65.818A2.42 2.42 0 0 1 13.748 65.922A2.451 2.451 0 0 1 13.463 62.479L19.675 55.1H9.647C6.068 55.1 3.167 52.184 3.167 48.586V16.015C3.167 12.416 6.069 9.5 9.647 9.5H50.15C53.731 9.5 56.631 12.416 56.631 16.015V20.436L68.415 13.877L72.022 16.015V48.586L68.416 50.723zM51.771 16.015L51.762 15.825A1.624 1.624 0 0 0 50.151 14.387H9.647L9.458 14.398A1.628 1.628 0 0 0 8.027 16.016V48.586L8.038 48.775A1.623 1.623 0 0 0 9.647 50.214H50.15L50.34 50.202C51.146 50.108 51.77 49.42 51.77 48.585V16.015zM67.162 20.16L57.442 25.568V39.033L67.162 44.442V20.16z" />
    <glyph glyph-name="pagetop"
      unicode="&#xE93D;"
      horiz-adv-x="76" d="M73.669 41.862L42.48 73.05A6.231 6.231 0 0 1 40.365 74.472C40.316 74.493 40.264 74.501 40.214 74.52A6.23 6.23 0 0 1 39.2 74.82C39.161 74.828 39.122 74.825 39.082 74.831C38.73 74.894 38.371 74.94 38 74.94S37.27 74.893 36.918 74.831C36.878 74.825 36.839 74.828 36.8 74.82A6.174 6.174 0 0 1 35.786 74.519C35.735 74.5 35.683 74.492 35.635 74.471A6.212 6.212 0 0 1 33.52 73.049L2.333 41.862A6.265 6.265 0 0 1 2.333 33.007A6.262 6.262 0 0 1 11.187 33.007L31.736 53.557V7.323A6.256 6.256 0 0 1 38.001 1.059A6.257 6.257 0 0 1 44.267 7.323V53.557L64.814 33.007C66.025 31.774 67.632 31.171 69.242 31.171S72.459 31.774 73.671 33.007A6.27 6.27 0 0 1 73.669 41.862z" />
    <glyph glyph-name="pen"
      unicode="&#xE93E;"
      horiz-adv-x="76" d="M73.341 51.49L51.489 73.34C50.793 74.053 49.859 74.417 48.926 74.417S47.073 74.053 46.344 73.34L2.881 29.878A4.359 4.359 0 0 1 1.583 26.759V4.781C1.583 3.024 3.008 1.583 4.765 1.583H26.52A4.925 4.925 0 0 1 30.004 3.024L73.34 46.343A3.605 3.605 0 0 1 73.341 51.49zM25.919 8.013H7.996V25.919L40.707 58.615L58.472 40.549L25.919 8.013zM63.017 45.094L45.237 63.159L48.926 66.848L66.85 48.925L63.017 45.094z" />
    <glyph glyph-name="people"
      unicode="&#xE93F;"
      horiz-adv-x="76" d="M69.82 47.07C68.62 49.2 67.2 50.43 65.61 51.13A8.603 8.603 0 0 1 68.98 57.96C68.98 62.72 65.11 66.6 60.34 66.6C55.58 66.6 51.7 62.73 51.7 57.96C51.7 55.18 53.02 52.71 55.07 51.13C53.49 50.42 52.06 49.19 50.86 47.07C50.63 46.66 50.42 46.25 50.2 45.83C49.53 48.19 48.6 50.31 47.45 52.34C46.25 54.47 44.83 55.7 43.24 56.4C45.28 57.98 46.61 60.45 46.61 63.23C46.61 67.99 42.74 71.87 37.97 71.87C33.21 71.87 29.33 68 29.33 63.23C29.33 60.45 30.65 57.98 32.7 56.4C31.12 55.69 29.69 54.46 28.49 52.34C27.34 50.31 26.41 48.19 25.74 45.83C25.53 46.25 25.31 46.66 25.08 47.07C23.88 49.2 22.46 50.43 20.87 51.13A8.603 8.603 0 0 1 24.24 57.96C24.24 62.72 20.37 66.6 15.6 66.6C10.84 66.6 6.96 62.73 6.96 57.96C6.96 55.18 8.28 52.71 10.33 51.13C8.75 50.42 7.32 49.19 6.12 47.07C3.7 42.77 2.2 38.1 2.2 31.54C2.2 29.89 2.3 28.28 2.48 26.72C2.75 24.41 5.69 24.27 5.84 22.66C5.99 21.05 6.13 8.98 6.13 8.98C6.13 6.29 6.83 4.06 10.01 4.06H21.23C24 4.06 25.11 6.22 25.11 8.98C25.11 8.98 25.29 21.12 25.34 22.66C25.39 23.9 27.37 24.28 28.28 25.59C28.39 21.6 28.47 14.25 28.47 14.25C28.47 11.56 29.17 9.33 32.35 9.33H43.57C46.34 9.33 47.45 11.49 47.45 14.25C47.45 14.25 47.56 21.53 47.63 25.53C48.54 24.29 50.41 23.93 50.52 22.66C50.67 21.05 50.81 8.98 50.81 8.98C50.81 6.29 51.51 4.06 54.69 4.06H65.91C68.68 4.06 69.79 6.22 69.79 8.98C69.79 8.98 69.97 21.12 70.02 22.66C70.07 24.2 73.11 24.4 73.38 26.72C73.56 28.28 73.66 29.89 73.66 31.54C73.75 38.11 72.25 42.78 69.82 47.07zM15.64 60.6C17.09 60.6 18.28 59.42 18.28 57.96C18.28 56.51 17.1 55.32 15.64 55.32C14.19 55.32 13 56.5 13 57.96A2.65 2.65 0 0 0 15.64 60.6zM22.94 28.91C21.66 28 19.52 26.15 19.4 22.89C19.35 21.54 19.22 13.13 19.18 10.07H12.16C12.11 13.72 12 21.67 11.86 23.22C11.58 26.29 9.62 28.01 8.34 28.91C8.28 29.78 8.24 30.66 8.24 31.54C8.24 36.44 9.18 40.2 11.39 44.12C12.2 45.56 12.71 46.02 15.64 46.02C18.57 46.02 19.08 45.55 19.89 44.12C22.1 40.21 23.04 36.44 23.04 31.54C23.04 30.67 23.01 29.79 22.94 28.91zM38 65.88C39.45 65.88 40.64 64.7 40.64 63.24C40.64 61.78 39.45 60.6 38 60.6C36.55 60.6 35.36 61.78 35.36 63.24C35.36 64.7 36.54 65.88 38 65.88zM45.3 34.18C44.02 33.27 41.88 31.42 41.76 28.16C41.71 26.81 41.58 18.4 41.54 15.34H34.52C34.47 18.99 34.36 26.94 34.22 28.49C33.94 31.56 31.98 33.28 30.7 34.18C30.64 35.05 30.6 35.93 30.6 36.81C30.6 41.71 31.54 45.47 33.75 49.39C34.56 50.83 35.07 51.29 38 51.29C40.93 51.29 41.44 50.82 42.25 49.39C44.46 45.48 45.4 41.71 45.4 36.81C45.39 35.94 45.36 35.06 45.3 34.18zM60.35 60.6C61.8 60.6 62.99 59.42 62.99 57.96C62.99 56.51 61.81 55.32 60.35 55.32C58.9 55.32 57.71 56.5 57.71 57.96C57.71 59.42 58.9 60.6 60.35 60.6zM67.65 28.91C66.37 28 64.23 26.15 64.11 22.89C64.06 21.54 63.93 13.13 63.89 10.07H56.87C56.82 13.72 56.71 21.67 56.57 23.22C56.29 26.29 54.33 28.01 53.05 28.91C52.99 29.78 52.95 30.66 52.95 31.54C52.95 36.44 53.89 40.2 56.1 44.12C56.91 45.56 57.42 46.02 60.35 46.02C63.28 46.02 63.79 45.55 64.6 44.12C66.81 40.21 67.75 36.44 67.75 31.54C67.75 30.67 67.71 29.79 67.65 28.91z" />
    <glyph glyph-name="phone"
      unicode="&#xE940;"
      horiz-adv-x="76" d="M54.039 74.417H21.961C17.496 74.417 13.87 70.792 13.87 66.327V9.674C13.87 5.21 17.496 1.584 21.961 1.584H54.039C58.505 1.584 62.131 5.21 62.131 9.674V66.326C62.131 70.791 58.505 74.417 54.039 74.417zM21.961 68.353H54.039A2.03 2.03 0 0 0 56.066 66.327V27.883H19.934V66.326C19.934 67.434 20.837 68.353 21.961 68.353zM54.039 7.647H21.961A2.031 2.031 0 0 0 19.934 9.672V21.817H56.066V9.672A2.031 2.031 0 0 0 54.039 7.647zM33.947 15.406A4.053 4.053 0 0 1 42.053 15.406A4.053 4.053 0 0 1 33.947 15.406" />
    <glyph glyph-name="picture"
      unicode="&#xE941;"
      horiz-adv-x="76" d="M66.357 65.898H9.642A4.419 4.419 0 0 1 5.225 61.481V14.52A4.42 4.42 0 0 1 9.642 10.102H66.357A4.42 4.42 0 0 1 70.775 14.52V61.481A4.42 4.42 0 0 1 66.357 65.898zM65.233 60.357V26.201L55.084 36.306C54.056 37.351 52.219 37.351 51.174 36.306L43.732 28.866L27.693 44.903A2.772 2.772 0 0 1 23.781 44.903L10.767 31.889V60.357H65.233zM10.767 15.628V24.066L25.745 39.045L41.802 23.005C42.83 21.961 44.667 21.961 45.712 23.005L53.154 30.448L65.234 18.365V15.628H10.767zM48.593 48.593A5.114 5.114 0 0 1 58.821 48.593A5.114 5.114 0 0 1 48.593 48.593" />
    <glyph glyph-name="pictures"
      unicode="&#xE942;"
      horiz-adv-x="76" d="M69.402 69.659L69.066 69.666H17.416A7.917 7.917 0 0 1 9.507 62.093L9.5 61.75V55.417H4.27C1.913 55.417 0 53.451 0 51.03V4.389C0 1.966 1.912 0 4.269 0H59.064C61.421 0 63.332 1.966 63.332 4.389V10.712V51.029C63.332 53.45 61.422 55.416 59.064 55.416H15.833V61.75C15.833 62.562 16.444 63.231 17.231 63.323L17.416 63.334H69.066A0.6 0.6 0 0 0 69.654 62.855L69.666 62.733V20.584C69.666 19.772 69.055 19.104 68.268 19.012L68.082 19H63.855V12.667H68.082C72.342 12.667 75.812 16.026 75.994 20.24L76 20.583V62.732A6.936 6.936 0 0 1 69.402 69.659zM5.355 5.489V15.188L19.564 29.698L35.41 13.534C36.426 12.481 38.238 12.481 39.268 13.534L46.612 21.033L57.979 9.427V5.489H5.355zM57.979 17.321L48.52 26.938C47.502 27.991 45.69 27.991 44.659 26.938L37.317 19.437L21.487 35.603A2.694 2.694 0 0 1 17.628 35.603L5.355 23.071V49.913H57.979V17.321zM45.916 44.333A4.75 4.75 0 1 0 45.916 34.833A4.75 4.75 0 0 0 45.916 44.333z" />
    <glyph glyph-name="play"
      unicode="&#xE943;"
      horiz-adv-x="76" d="M11.036 72.314V3.686A2.979 2.979 0 0 1 15.747 1.262L63.719 35.565A2.979 2.979 0 0 1 63.719 40.41L15.747 74.736A2.979 2.979 0 0 1 11.036 72.314z" />
    <glyph glyph-name="plus"
      unicode="&#xE944;"
      horiz-adv-x="76" d="M38 75.271C17.415 75.271 0.729 58.585 0.729 38S17.415 0.729 38 0.729S75.271 17.415 75.271 38S58.585 75.271 38 75.271zM55.971 34.586H41.427V20.042A3.411 3.411 0 0 0 38 16.615A3.412 3.412 0 0 0 34.574 20.042L34.569 34.586H20.031A3.41 3.41 0 0 0 16.605 38.011C16.605 38.952 16.997 39.814 17.612 40.429A3.407 3.407 0 0 0 20.042 41.426L34.567 41.431L34.562 55.969A3.466 3.466 0 0 0 38 59.407A3.412 3.412 0 0 0 41.427 55.981V41.433L55.971 41.438A3.413 3.413 0 0 0 59.397 38.011A3.414 3.414 0 0 0 55.971 34.586z" />
    <glyph glyph-name="popper"
      unicode="&#xE945;"
      horiz-adv-x="76" d="M8.423 3.167A2.403 2.403 0 0 0 6.729 3.862A2.434 2.434 0 0 0 6.159 6.364L18.636 41.562C18.905 42.322 19.538 42.892 20.33 43.082A2.387 2.387 0 0 0 22.531 42.513L46.535 20.346C47.15 19.777 47.421 18.921 47.262 18.097C47.089 17.275 46.503 16.594 45.727 16.326L9.231 3.309A2.386 2.386 0 0 0 8.423 3.167zM21.945 36.543L12.366 9.516L40.36 19.523L21.945 36.543zM29.577 44.539C22.641 44.539 17.005 50.176 17.005 57.11C17.005 64.029 22.641 69.666 29.577 69.666C36.512 69.666 42.148 64.029 42.148 57.095C42.132 50.176 36.495 44.539 29.577 44.539zM29.577 64.87A7.778 7.778 0 0 1 21.803 57.096C21.803 52.805 25.286 49.321 29.577 49.321S37.35 52.805 37.35 57.096C37.335 61.386 33.852 64.87 29.577 64.87zM57.411 19.365C50.476 19.365 44.841 25.001 44.841 31.935S50.477 44.506 57.411 44.506C64.348 44.506 69.983 38.869 69.983 31.935S64.331 19.365 57.411 19.365zM57.411 39.694A7.777 7.777 0 0 1 49.637 31.92A7.778 7.778 0 0 1 57.411 24.146A7.777 7.777 0 0 1 65.185 31.92C65.186 36.211 61.687 39.694 57.411 39.694zM54.339 51.791A4.671 4.671 0 0 1 63.681 51.791A4.671 4.671 0 0 1 54.339 51.791M44.95 57.649A3.547 3.547 0 0 1 52.044 57.649A3.547 3.547 0 0 1 44.95 57.649M35.545 39.646A3.547 3.547 0 0 1 42.639 39.646A3.547 3.547 0 0 1 35.545 39.646M44.761 47.009A3.198 3.198 0 0 1 51.157 47.009A3.198 3.198 0 0 1 44.761 47.009" />
    <glyph glyph-name="post-all"
      unicode="&#xE946;"
      horiz-adv-x="76" d="M73.898 59.691L59.648 73.941C58.381 75.208 56.48 76 54.582 76H26.714A7.096 7.096 0 0 1 19.589 68.875V49.4C19.589 48.133 20.698 47.025 21.964 47.025C23.231 47.025 24.339 48.133 24.339 49.4V68.717C24.339 69.984 25.448 71.092 26.714 71.092H51.73V58.267C51.73 54.466 54.898 51.458 58.855 51.458H66.138C67.406 51.458 68.513 52.566 68.513 53.833S67.406 56.208 66.138 56.208H58.855C57.589 56.208 56.48 57.158 56.48 58.267V70.3L70.572 56.208C71.049 55.734 71.207 55.1 71.207 54.466V7.125C71.207 5.855 70.098 4.75 68.832 4.75H65.348C64.082 4.75 62.973 3.642 62.973 2.375C62.973 1.105 64.082 0 65.348 0H68.832A7.096 7.096 0 0 1 75.957 7.125V54.625C75.957 56.524 75.164 58.267 73.898 59.691zM14.997 38.95V39.108C14.205 41.325 10.722 41.166 10.089 38.791L0.114 3.166V3.007C-0.203 1.74 0.589 0.475 1.856 0.156H2.014C3.281 0 4.706 0.632 5.022 1.897L6.763 8.074H19.113L21.012 1.897V1.74C21.488 0.632 22.912 -0.159 24.179 0.314C25.604 0.63 26.396 2.056 25.921 3.324L14.997 38.95zM8.188 13.299L12.621 29.133L17.53 13.299H8.188zM40.488 4.908H33.997V38.474C33.838 39.741 32.73 40.691 31.463 40.691C30.038 40.691 28.772 39.582 28.772 38.316V2.375C28.93 1.106 30.038 0.158 31.305 0.158H40.647C42.072 0.315 43.022 1.266 43.022 2.533V2.69C43.022 3.957 41.914 4.908 40.488 4.908zM60.123 2.69C59.965 3.959 58.855 4.908 57.59 4.908H51.098V38.474C50.94 39.741 49.83 40.691 48.565 40.691C47.139 40.691 45.874 39.582 45.874 38.316V2.375C46.032 1.106 47.142 0.158 48.407 0.158H57.749C59.175 0.315 60.124 1.266 60.124 2.533V2.69H60.123z" />
    <glyph glyph-name="post-camera"
      unicode="&#xE947;"
      horiz-adv-x="76" d="M51.775 40.85H41.009L36.259 46.867A3.9 3.9 0 0 1 33.251 48.292H21.534C20.425 48.292 19.317 47.817 18.683 47.026L13.458 40.85H2.85A2.838 2.838 0 0 1 0 38V2.85A2.84 2.84 0 0 1 2.85 0H51.775A2.84 2.84 0 0 1 54.626 2.85V38A2.84 2.84 0 0 1 51.775 40.85zM49.4 35.467V5.225H5.383V35.467H15.833L22.166 42.909H32.616L38.632 35.467H49.4zM26.917 34.991C19.317 34.991 13.142 28.816 13.142 21.217S19.317 7.444 26.917 7.444S40.693 13.618 40.693 21.217S34.517 34.991 26.917 34.991zM35.308 21.217C35.308 16.625 31.508 12.824 26.916 12.824C22.325 12.824 18.525 16.625 18.525 21.217S22.325 29.61 26.916 29.61C31.508 29.607 35.308 25.967 35.308 21.217zM73.941 59.692L59.691 73.942C58.426 75.208 56.525 76 54.625 76H26.758A7.096 7.096 0 0 1 19.633 68.875V54.15C19.633 52.883 20.741 51.775 22.008 51.775S24.383 52.883 24.383 54.15V68.875C24.383 70.142 25.491 71.25 26.758 71.25H51.776V58.425C51.776 54.625 54.942 51.617 58.901 51.617H66.182C67.45 51.617 68.557 52.725 68.557 53.992S67.45 56.367 66.182 56.367H58.9C57.632 56.367 56.525 57.317 56.525 58.425V70.458L70.616 56.367C71.092 55.892 71.25 55.259 71.25 54.625V16.782C71.25 15.515 70.143 14.407 68.875 14.407H59.059C57.792 14.407 56.684 13.301 56.684 12.032C56.684 10.765 57.792 9.658 59.059 9.658H68.875A7.095 7.095 0 0 1 76 16.782V54.625C76 56.525 75.208 58.425 73.941 59.692z" />
    <glyph glyph-name="post-photo"
      unicode="&#xE948;"
      horiz-adv-x="76" d="M43.857 51.142H7.442A7.433 7.433 0 0 1 0 43.701V7.284C0 3.324 3.325 0 7.442 0H43.859A7.433 7.433 0 0 1 51.3 7.441V43.858C51.143 47.817 47.816 51.142 43.857 51.142zM43.857 4.908H7.442A2.5 2.5 0 0 0 4.909 7.441V18.051L15.675 28.817L27.075 17.418C28.025 16.468 29.608 16.468 30.558 17.418C31.034 17.894 31.35 18.526 31.35 19.158C31.35 19.793 31.034 20.427 30.558 20.901L25.65 25.807L30.4 30.557L46.074 14.883V7.6C46.232 6.018 45.125 4.908 43.857 4.908zM28.817 35.625L22.325 29.134L17.416 34.042A2.486 2.486 0 0 1 13.933 34.042L4.909 25.018V43.858A2.5 2.5 0 0 0 7.442 46.391H43.859A2.5 2.5 0 0 0 46.392 43.858V21.691L32.458 35.625C31.983 36.1 31.349 36.417 30.716 36.417C29.925 36.417 29.292 36.1 28.817 35.625zM42.116 14.884H9.025A2.5 2.5 0 0 1 6.491 12.35A2.5 2.5 0 0 1 9.025 9.819H42.116A2.5 2.5 0 0 1 44.65 12.35A2.501 2.501 0 0 1 42.116 14.884zM73.941 59.692L59.691 73.942C58.426 75.208 56.525 76 54.625 76H26.758A7.096 7.096 0 0 1 19.633 68.875V57.317C19.633 56.05 20.741 54.942 22.008 54.942S24.383 56.05 24.383 57.317V68.875C24.383 70.142 25.491 71.25 26.758 71.25H51.776V58.425C51.776 54.625 54.942 51.617 58.901 51.617H66.182C67.45 51.617 68.557 52.725 68.557 53.992S67.45 56.367 66.182 56.367H58.9C57.632 56.367 56.525 57.317 56.525 58.425V70.458L70.616 56.367C71.092 55.892 71.25 55.259 71.25 54.625V16.782C71.25 15.515 70.143 14.407 68.875 14.407H57.475C56.208 14.407 55.1 13.301 55.1 12.032C55.1 10.765 56.208 9.658 57.475 9.658H68.875A7.095 7.095 0 0 1 76 16.782V54.625C76 56.525 75.208 58.425 73.941 59.692z" />
    <glyph glyph-name="post-video"
      unicode="&#xE949;"
      horiz-adv-x="76" d="M38.633 24.542L16.466 13.458V35.625L38.633 24.542zM41.958 49.083H7.125A7.096 7.096 0 0 1 0 41.958V7.125A7.096 7.096 0 0 1 7.125 0H41.958A7.095 7.095 0 0 1 49.083 7.125V41.958A7.095 7.095 0 0 1 41.958 49.083zM41.958 4.75H7.125C5.858 4.75 4.75 5.857 4.75 7.125V41.958C4.75 43.224 5.858 44.333 7.125 44.333H41.958C43.225 44.333 44.333 43.224 44.333 41.958V7.125C44.333 5.857 43.225 4.75 41.958 4.75zM73.941 59.692L59.691 73.942C58.426 75.208 56.525 76 54.625 76H26.758A7.096 7.096 0 0 1 19.633 68.875V57.317C19.633 56.05 20.741 54.942 22.008 54.942S24.383 56.05 24.383 57.317V68.875C24.383 70.142 25.491 71.25 26.758 71.25H51.776V58.425C51.776 54.625 54.942 51.617 58.901 51.617H66.182C67.45 51.617 68.557 52.725 68.557 53.992S67.45 56.367 66.182 56.367H58.9C57.632 56.367 56.525 57.317 56.525 58.425V70.458L70.616 56.367C71.092 55.892 71.25 55.259 71.25 54.625V16.782C71.25 15.515 70.143 14.407 68.875 14.407H57.475C56.208 14.407 55.1 13.301 55.1 12.032C55.1 10.765 56.208 9.658 57.475 9.658H68.875A7.095 7.095 0 0 1 76 16.782V54.625C76 56.525 75.208 58.425 73.941 59.692z" />
    <glyph glyph-name="post-vote"
      unicode="&#xE94A;"
      horiz-adv-x="76" d="M73.941 59.692L59.691 73.942C58.426 75.208 56.525 76 54.625 76H26.758A7.096 7.096 0 0 1 19.633 68.875V57.317C19.633 56.05 20.741 54.942 22.008 54.942S24.383 56.05 24.383 57.317V68.875C24.383 70.142 25.491 71.25 26.758 71.25H51.776V58.425C51.776 54.625 54.942 51.617 58.901 51.617H66.182C67.45 51.617 68.557 52.725 68.557 53.992S67.45 56.367 66.182 56.367H58.9C57.632 56.367 56.525 57.317 56.525 58.425V70.458L70.616 56.367C71.092 55.892 71.25 55.259 71.25 54.625V16.782C71.25 15.515 70.143 14.407 68.875 14.407H57.475C56.208 14.407 55.1 13.301 55.1 12.032C55.1 10.765 56.208 9.658 57.475 9.658H68.875A7.095 7.095 0 0 1 76 16.782V54.625C76 56.525 75.208 58.425 73.941 59.692zM41.958 49.083H7.125A7.096 7.096 0 0 1 0 41.958V7.125A7.096 7.096 0 0 1 7.125 0H41.958A7.095 7.095 0 0 1 49.083 7.125V41.958A7.095 7.095 0 0 1 41.958 49.083zM41.958 4.75H7.125C5.858 4.75 4.75 5.857 4.75 7.125V41.958C4.75 43.224 5.858 44.333 7.125 44.333H41.958C43.225 44.333 44.333 43.224 44.333 41.958V7.125C44.333 5.857 43.225 4.75 41.958 4.75zM40.375 14.25H24.542C23.75 15.199 22.642 15.833 21.375 15.833S19 15.199 18.208 14.25H8.708C7.441 14.25 6.333 13.143 6.333 11.875S7.442 9.5 8.708 9.5H18.208C19 8.551 20.108 7.917 21.375 7.917S23.75 8.551 24.542 9.5H40.375C41.643 9.5 42.75 10.607 42.75 11.875S41.643 14.25 40.375 14.25zM40.375 26.125H36.417C35.625 27.074 34.517 27.708 33.25 27.708S30.875 27.074 30.083 26.125H8.708C7.441 26.125 6.333 25.018 6.333 23.75S7.441 21.375 8.708 21.375H30.083C30.875 20.426 31.983 19.792 33.25 19.792S35.625 20.426 36.417 21.375H40.375C41.643 21.375 42.75 22.482 42.75 23.75S41.643 26.125 40.375 26.125zM40.375 37.208H20.583C19.791 38.159 18.683 38.791 17.416 38.791C16.15 38.791 15.041 38.158 14.249 37.208H8.707C7.44 37.208 6.332 36.1 6.332 34.833S7.44 32.458 8.707 32.458H14.25C15.042 31.509 16.15 30.875 17.417 30.875S19.792 31.509 20.584 32.458H40.376C41.643 32.458 42.751 33.566 42.751 34.833C42.75 36.1 41.643 37.208 40.375 37.208z" />
    <glyph glyph-name="reader"
      unicode="&#xE94B;"
      horiz-adv-x="76" d="M68.954 34.58H7.299A3.96 3.96 0 0 0 7.299 42.496H68.971A3.96 3.96 0 0 0 72.93 38.538C72.93 36.354 71.139 34.58 68.954 34.58zM10.133 55.417V65.028H20.378A3.534 3.534 0 0 1 23.909 68.559A3.534 3.534 0 0 1 20.378 72.09H7.6A4.527 4.527 0 0 1 3.072 67.562V55.418A3.534 3.534 0 0 1 6.603 51.887C8.55 51.901 10.133 53.469 10.133 55.417zM65.693 55.417V65.028H55.447A3.533 3.533 0 0 0 51.918 68.559A3.534 3.534 0 0 0 55.447 72.09H68.225A4.527 4.527 0 0 0 72.754 67.562V55.418A3.535 3.535 0 0 0 69.224 51.887C67.276 51.901 65.693 53.469 65.693 55.417zM10.133 20.583V10.972H20.378A3.534 3.534 0 0 0 23.909 7.443A3.534 3.534 0 0 0 20.378 3.913H7.6A4.526 4.526 0 0 0 3.072 8.44V20.583A3.535 3.535 0 0 0 6.603 24.115C8.55 24.1 10.133 22.531 10.133 20.583zM65.693 20.583V10.972H55.447A3.533 3.533 0 0 1 51.918 7.443A3.533 3.533 0 0 1 55.447 3.913H68.225A4.526 4.526 0 0 1 72.754 8.44V20.583A3.535 3.535 0 0 1 69.224 24.115C67.276 24.1 65.693 22.531 65.693 20.583z" />
    <glyph glyph-name="reload"
      unicode="&#xE94C;"
      horiz-adv-x="76" d="M69.667 37.208A3.167 3.167 0 0 1 66.5 34.042C66.5 18.738 54.095 6.333 38.792 6.333C23.489 6.333 11.084 18.738 11.084 34.042C11.084 49.345 23.489 61.75 38.792 61.75V53.833L60.958 64.916L38.792 76V68.083C19.991 68.083 4.75 52.842 4.75 34.042C4.75 15.241 19.991 0 38.792 0C57.592 0 72.833 15.241 72.833 34.042A3.167 3.167 0 0 1 69.667 37.208z" />
    <glyph glyph-name="report"
      unicode="&#xE94D;"
      horiz-adv-x="76" d="M59.638 0.071H16.306C10.616 0.071 5.433 2.958 2.444 7.8C-0.545 12.644 -0.808 18.572 1.741 23.662L23.395 66.893C26.189 72.464 31.787 75.928 38.019 75.928C44.249 75.928 49.857 72.464 52.643 66.893L74.253 23.748C76.81 18.641 76.547 12.698 73.55 7.836C70.552 2.978 65.353 0.071 59.638 0.071zM38.019 69.865C34.038 69.865 30.592 67.74 28.806 64.174L7.152 20.954A10.18 10.18 0 0 1 7.592 10.995A10.17 10.17 0 0 1 16.297 6.135H59.628C63.217 6.135 66.496 7.963 68.384 11.022A10.227 10.227 0 0 1 68.831 21.039L47.229 64.174C45.445 67.74 41.998 69.865 38.019 69.865zM38.149 29.432C36.391 29.432 34.969 30.785 34.969 32.461V53.326C34.969 55.003 36.391 56.358 38.149 56.358C39.907 56.358 41.327 55.003 41.327 53.326V32.471C41.327 30.794 39.907 29.432 38.149 29.432zM37.999 13.436A4.752 4.752 0 0 0 34.646 14.822A4.938 4.938 0 0 0 34.047 15.555A4.087 4.087 0 0 0 33.595 16.368A4.445 4.445 0 0 0 33.328 17.247A4.536 4.536 0 0 0 33.235 18.206C33.235 18.515 33.262 18.819 33.328 19.14C33.395 19.446 33.475 19.74 33.595 20.02C33.715 20.299 33.874 20.591 34.047 20.858C34.207 21.126 34.406 21.364 34.646 21.579C34.859 21.792 35.098 22.005 35.364 22.179C35.631 22.338 35.884 22.487 36.202 22.604A4.8 4.8 0 0 0 37.079 22.886A4.946 4.946 0 0 0 38.942 22.886C39.248 22.818 39.553 22.713 39.845 22.604C40.124 22.487 40.391 22.338 40.657 22.179C40.924 22.005 41.164 21.792 41.388 21.579C41.602 21.364 41.788 21.126 41.961 20.858C42.148 20.591 42.293 20.312 42.413 20.02C42.533 19.74 42.627 19.446 42.68 19.14C42.745 18.834 42.773 18.527 42.773 18.206C42.773 17.874 42.746 17.567 42.68 17.247C42.627 16.967 42.534 16.647 42.413 16.368C42.293 16.088 42.147 15.821 41.987 15.555A6.39 6.39 0 0 0 41.387 14.822C40.473 13.942 39.288 13.436 37.999 13.436z" />
    <glyph glyph-name="reset"
      unicode="&#xE94E;"
      horiz-adv-x="76" d="M38 76C17.013 76 0 58.987 0 38S17.013 0 38 0S76 17.013 76 38S58.987 76 38 76zM54.547 24.039A2.498 2.498 0 0 0 52.779 19.772C52.139 19.772 51.5 20.016 51.011 20.504L38 33.516L24.988 20.504C24.5 20.016 23.86 19.772 23.22 19.772S21.941 20.016 21.452 20.504A2.498 2.498 0 0 0 21.452 24.039L34.464 37.051L21.453 50.062A2.499 2.499 0 1 0 24.988 53.597L38 40.585L51.012 53.597A2.499 2.499 0 1 0 54.547 50.062L41.535 37.051L54.547 24.039z" />
    <glyph glyph-name="search"
      unicode="&#xE94F;"
      horiz-adv-x="76" d="M73.387 8.914L51.083 28.612A27.447 27.447 0 0 1 55.132 36.463C59.834 50.872 51.95 66.358 37.541 71.06A26.968 26.968 0 0 1 29.022 72.422C17.463 72.422 6.713 65.059 2.929 53.469C-1.773 39.061 6.111 23.577 20.52 18.873A27.53 27.53 0 0 1 29.038 17.513C35.647 17.513 41.985 19.928 46.915 24.156L69.35 4.339C69.92 3.832 70.649 3.578 71.362 3.578C72.216 3.578 73.056 3.928 73.657 4.607C74.766 5.874 74.654 7.806 73.387 8.914zM29.055 23.607C26.822 23.607 24.589 23.956 22.436 24.668C17.021 26.442 12.604 30.21 10.023 35.293C7.442 40.375 6.983 46.154 8.756 51.585A21.28 21.28 0 0 0 29.039 66.326C31.271 66.326 33.505 65.977 35.657 65.265C41.071 63.492 45.491 59.723 48.07 54.64C50.652 49.557 51.11 43.779 49.338 38.348A21.28 21.28 0 0 0 29.055 23.607z" />
    <glyph glyph-name="service"
      unicode="&#xE950;"
      horiz-adv-x="76" d="M18.937 74.417C9.374 74.417 1.584 66.627 1.584 57.064S9.373 39.71 18.937 39.71H36.29V57.063C36.306 66.627 28.516 74.417 18.937 74.417zM29.529 57.063V46.47H18.937C13.095 46.47 8.345 51.22 8.345 57.063C8.345 62.905 13.095 67.655 18.937 67.655C24.779 67.656 29.529 62.89 29.529 57.063zM74.417 57.063C74.417 66.626 66.627 74.416 57.063 74.416S39.71 66.627 39.71 57.063V39.71H57.064C66.627 39.694 74.417 47.484 74.417 57.063zM46.471 46.471V57.063C46.471 62.905 51.221 67.655 57.064 67.655S67.657 62.905 67.657 57.063C67.657 51.22 62.907 46.47 57.064 46.47H46.471zM57.063 36.306H39.694V18.953C39.694 9.373 47.484 1.599 57.047 1.599C66.627 1.583 74.417 9.373 74.417 18.937C74.417 28.516 66.627 36.306 57.063 36.306zM67.656 18.937C67.656 13.094 62.906 8.344 57.063 8.344S46.47 13.094 46.47 18.937V29.529H57.063C62.891 29.529 67.656 24.779 67.656 18.937zM1.583 18.937C1.583 9.374 9.373 1.583 18.936 1.583S36.29 9.373 36.29 18.937V36.306H18.937C9.373 36.306 1.583 28.516 1.583 18.937zM8.344 18.937C8.344 24.78 13.094 29.53 18.936 29.53H29.529V18.937C29.529 13.094 24.779 8.344 18.936 8.344C13.094 8.344 8.344 13.109 8.344 18.937z" />
    <glyph glyph-name="setting"
      unicode="&#xE951;"
      horiz-adv-x="76" d="M73.656 45.109C73.182 47.642 71.582 49.242 69.62 49.194H69.317C64.774 49.194 61.085 52.883 61.085 57.427C61.085 58.868 61.797 60.53 61.797 60.546C62.765 62.731 62.02 65.422 60.056 66.784L50.936 71.882L50.84 71.931C48.878 72.786 46.201 72.247 44.714 70.712C43.319 69.271 40.312 66.991 38.174 66.991C35.752 66.991 32.522 69.794 31.588 70.776C30.115 72.328 27.44 72.881 25.476 72.042L16.119 66.912L15.944 66.802C13.981 65.441 13.221 62.748 14.203 60.564C14.203 60.548 14.915 58.886 14.915 57.429A8.237 8.237 0 0 0 6.682 49.196H6.301C4.353 49.196 2.802 47.596 2.327 45.095C2.264 44.683 1.583 40.946 1.583 37.986C1.583 34.977 2.264 31.272 2.343 30.861C2.818 28.375 4.385 26.76 6.38 26.76H6.682C11.225 26.76 14.915 23.071 14.915 18.527C14.915 17.086 14.203 15.408 14.203 15.408C13.237 13.222 13.981 10.531 15.944 9.152L24.891 4.133L24.985 4.086C26.981 3.198 29.673 3.786 31.145 5.369C32.285 6.603 35.546 9.328 37.827 9.328C40.312 9.328 43.606 6.334 44.556 5.305C45.552 4.213 47.074 3.564 48.641 3.564A5.26 5.26 0 0 1 50.698 3.975L59.977 9.09L60.071 9.152C62.035 10.531 62.796 13.207 61.814 15.392C61.608 15.85 61.101 17.307 61.101 18.527A8.237 8.237 0 0 0 69.334 26.76H69.62C71.631 26.744 73.198 28.328 73.688 30.861C73.767 31.272 74.447 34.993 74.447 37.986C74.417 40.961 73.736 44.682 73.656 45.109zM55.828 13.823L48.687 9.881A23.785 23.785 0 0 1 45.82 12.367C43.034 14.44 40.343 15.484 37.826 15.484C35.34 15.484 32.664 14.456 29.893 12.413A24.927 24.927 0 0 1 27.042 9.975L20.187 13.808C20.551 14.852 21.074 16.657 21.074 18.526C21.074 25.903 15.501 32.047 8.249 32.808C8.059 34.011 7.743 36.244 7.743 37.969C7.743 39.71 8.059 41.944 8.249 43.131C15.501 43.906 21.074 50.033 21.074 57.428C21.074 59.28 20.568 61.069 20.187 62.131L27.534 66.168A23.974 23.974 0 0 1 30.4 63.793C33.139 61.846 35.767 60.848 38.206 60.848C40.613 60.848 43.225 61.814 45.947 63.729A24.788 24.788 0 0 1 48.783 66.072L55.844 62.146C55.463 61.085 54.957 59.312 54.957 57.428C54.957 50.049 60.531 43.907 67.783 43.146C67.971 41.958 68.289 39.726 68.289 37.985S67.972 34.011 67.783 32.824C60.531 32.048 54.957 25.92 54.957 18.542C54.942 16.656 55.447 14.884 55.828 13.823zM37.842 51.284C30.527 51.284 24.589 45.331 24.589 38.031C24.589 30.732 30.543 24.779 37.842 24.779S51.094 30.732 51.094 38.031C51.094 45.331 45.156 51.284 37.842 51.284zM44.952 38.031C44.952 34.105 41.753 30.922 37.842 30.922C33.915 30.922 30.733 34.12 30.733 38.031C30.733 41.958 33.931 45.14 37.842 45.14C41.769 45.141 44.952 41.943 44.952 38.031z" />
    <glyph glyph-name="share"
      unicode="&#xE952;"
      horiz-adv-x="76" d="M63.841 24.938A10.543 10.543 0 0 1 55.622 21.01L31.54 34.011A14.91 14.91 0 0 1 32.126 38.158C32.126 39.488 31.936 40.77 31.619 42.006L56.13 54.419C58.061 52.36 60.801 51.062 63.841 51.062C69.682 51.062 74.417 55.796 74.417 61.639C74.417 67.481 69.682 72.215 63.841 72.215C57.997 72.215 53.265 67.481 53.265 61.639C53.265 61.036 53.327 60.435 53.422 59.849L28.943 47.453C26.156 51.078 21.786 53.422 16.862 53.422C8.423 53.422 1.583 46.598 1.583 38.158S8.422 22.894 16.846 22.894C21.659 22.894 25.95 25.127 28.737 28.611L53.295 15.358C53.265 15.026 53.247 14.709 53.247 14.377C53.247 8.535 57.981 3.801 63.825 3.801C69.667 3.801 74.401 8.535 74.401 14.377S69.682 24.938 63.841 24.938zM63.841 66.136A4.493 4.493 0 0 0 68.337 61.64C68.337 59.154 66.327 57.142 63.841 57.142S59.344 59.153 59.344 61.64A4.493 4.493 0 0 0 63.841 66.136zM16.847 28.975C11.78 28.975 7.663 33.092 7.663 38.159S11.78 47.343 16.847 47.343C21.913 47.343 26.031 43.226 26.031 38.159S21.913 28.975 16.847 28.975zM63.841 9.865C61.355 9.865 59.344 11.875 59.344 14.361S61.355 18.857 63.841 18.857S68.337 16.847 68.337 14.361S66.327 9.865 63.841 9.865z" />
    <glyph glyph-name="show"
      unicode="&#xE953;"
      horiz-adv-x="43" d="M21.21 0A27.46 27.46 0 0 1 42.43 10A27.44 27.44 0 0 1 37.43 14.7L42.52 20.7A2 2 0 0 1 39.52 23.4L39.41 23.28L34 16.84A27.36 27.36 0 0 1 27.26 19.33L30.26 24.51A2 2 0 0 1 26.85 26.62L26.76 26.5L23 19.94C22.4 19.94 21.8 20 21.19 20C20.77 20 20.36 20 19.94 20L16.24 26.5L16.15 26.62A2 2 0 0 1 12.76 24.5H12.76L15.66 19.43A27.26 27.26 0 0 1 9.16 17.21L4 23.29L3.89 23.41A2 2 0 0 1 1 20.71H1L5.68 15.18A27.81 27.81 0 0 1 0 10A27.42 27.42 0 0 1 21.21 0zM21.21 4H20.77A23.44 23.44 0 0 0 5.77 9.76H5.77L5.5 10L5.77 10.24A23.39 23.39 0 0 0 21.21 16H21.66A23.47 23.47 0 0 0 36.66 10.24H36.66L36.93 10L36.66 9.76A23.4 23.4 0 0 0 21.21 4zM21.5 18.5A8.5 8.5 0 1 1 30 10A8.51 8.51 0 0 1 21.5 18.5zM21.5 14.5A4.5 4.5 0 1 0 17 10A4.49 4.49 0 0 0 21.5 14.5z" />
    <glyph glyph-name="slider"
      unicode="&#xE954;"
      horiz-adv-x="76" d="M66.135 67.245H60.421C59.134 69.761 56.522 71.488 53.501 71.488S47.868 69.761 46.581 67.245H9.864A3.534 3.534 0 0 1 6.333 63.714A3.535 3.535 0 0 1 9.864 60.182H46.581C47.868 57.665 50.48 55.939 53.501 55.939S59.134 57.665 60.421 60.182H66.135A3.535 3.535 0 0 1 69.667 63.714A3.535 3.535 0 0 1 66.135 67.245zM66.135 41.531H34.312A7.765 7.765 0 0 1 27.392 45.774A7.769 7.769 0 0 1 20.472 41.531H9.864A3.534 3.534 0 0 1 6.333 38A3.534 3.534 0 0 1 9.864 34.469H20.471A7.767 7.767 0 0 1 27.391 30.226A7.768 7.768 0 0 1 34.311 34.469H66.134A3.535 3.535 0 0 1 69.666 38A3.534 3.534 0 0 1 66.135 41.531zM66.135 15.818H47.438A7.766 7.766 0 0 1 40.518 20.06A7.769 7.769 0 0 1 33.598 15.818H9.864C7.916 15.818 6.333 14.234 6.333 12.286S7.916 8.755 9.864 8.755H33.597A7.768 7.768 0 0 1 40.517 4.512A7.769 7.769 0 0 1 47.437 8.755H66.134C68.082 8.755 69.666 10.338 69.666 12.286S68.083 15.818 66.135 15.818z" />
    <glyph glyph-name="star"
      unicode="&#xE955;"
      horiz-adv-x="76" d="M57.365 3.167H57.317A5.105 5.105 0 0 0 54.578 3.958L38 14.615L21.47 3.974C19.032 2.439 15.833 3.167 14.313 5.573A5.235 5.235 0 0 0 13.664 9.58L18.683 28.691L3.467 41.088C1.266 42.893 0.95 46.154 2.755 48.339A5.116 5.116 0 0 0 6.428 50.207L26.078 51.332L33.329 69.904A5.245 5.245 0 0 0 40.344 72.264A5.31 5.31 0 0 0 42.703 69.904L42.797 69.667L49.922 51.348L69.556 50.224A5.11 5.11 0 0 0 74.148 46.741C74.829 44.698 74.164 42.433 72.502 41.104L57.3 28.69L62.304 9.672A5.152 5.152 0 0 0 60.405 4.257A5.068 5.068 0 0 0 57.396 3.166H57.365zM37.984 22.088L55.513 10.83L50.207 31.002L66.262 44.128L45.536 45.316L38 64.679L30.447 45.299L9.706 44.111L25.793 31.002L20.504 10.83L37.984 22.088z" />
    <glyph glyph-name="trash"
      unicode="&#xE956;"
      horiz-adv-x="76" d="M50.983 64.078H25.017A3.534 3.534 0 0 0 21.486 67.609A3.534 3.534 0 0 0 25.017 71.14H50.984A3.534 3.534 0 0 0 54.514 67.609A3.534 3.534 0 0 0 50.983 64.078zM65.344 59.485H10.656A3.534 3.534 0 0 1 7.125 55.954A3.534 3.534 0 0 1 10.656 52.423H11.828V10.149A5.287 5.287 0 0 1 17.116 4.861H58.9A5.287 5.287 0 0 1 64.188 10.149V52.424H65.343A3.534 3.534 0 0 1 68.874 55.955A3.532 3.532 0 0 1 65.344 59.485zM58.061 10.957H17.923V52.424H58.061V10.957zM33.234 43.352V19.523C33.234 17.734 31.651 16.276 29.703 16.276C27.756 16.276 26.172 17.734 26.172 19.523V43.352C26.172 45.141 27.756 46.598 29.703 46.598C31.651 46.598 33.234 45.141 33.234 43.352zM49.083 43.352V19.523C49.083 17.734 47.5 16.276 45.552 16.276C43.606 16.276 42.022 17.734 42.022 19.523V43.352C42.022 45.141 43.606 46.598 45.552 46.598C47.5 46.598 49.083 45.141 49.083 43.352z" />
    <glyph glyph-name="unchecked"
      unicode="&#xE957;"
      horiz-adv-x="76" d="M38 76C17.012 76 0 58.988 0 38C0 17.014 17.012 0 38 0C58.986 0 76 17.014 76 38C76 58.988 58.986 76 38 76zM52.724 26.941C53.398 26.267 53.398 25.171 52.724 24.498L51.502 23.276A1.729 1.729 0 0 0 49.059 23.276L36.846 35.491L24.632 23.276A1.729 1.729 0 0 0 22.189 23.276L20.967 24.498A1.729 1.729 0 0 0 20.967 26.941L33.182 39.154L20.967 51.368A1.729 1.729 0 0 0 20.967 53.811L22.189 55.033A1.729 1.729 0 0 0 24.632 55.033L36.846 42.818L49.059 55.033A1.729 1.729 0 0 0 51.502 55.033L52.724 53.811A1.729 1.729 0 0 0 52.724 51.368L40.509 39.154L52.724 26.941z" />
    <glyph glyph-name="upload"
      unicode="&#xE958;"
      horiz-adv-x="76" d="M56.366 51.269L40.471 69.255A3.192 3.192 0 0 1 38.095 70.331C37.177 70.331 36.322 69.935 35.72 69.255L19.586 51.221C18.446 49.907 18.572 47.911 19.887 46.772C20.489 46.25 21.217 45.996 21.961 45.996C22.832 45.996 23.703 46.36 24.368 47.073L34.469 58.339V27.218A3.5 3.5 0 0 1 41.467 27.202V58.603L51.632 47.105A3.17 3.17 0 0 1 56.082 46.82A3.168 3.168 0 0 1 56.366 51.269zM65.154 33.107V12.113H10.783V33.281A3.182 3.182 0 0 1 7.6 36.463A3.284 3.284 0 0 1 4.323 33.187V8.978A3.292 3.292 0 0 1 7.616 5.684H68.289A3.292 3.292 0 0 1 71.582 8.978V33.361A3.107 3.107 0 0 1 68.479 36.463A3.361 3.361 0 0 1 65.154 33.107z" />
    <glyph glyph-name="user-gallery"
      unicode="&#xE959;"
      horiz-adv-x="76" d="M72.23 32.301H42.056A2.34 2.34 0 0 1 39.71 29.957V4.973A2.34 2.34 0 0 1 42.056 2.629H72.215A2.338 2.338 0 0 1 74.559 4.973V29.957A2.316 2.316 0 0 1 72.23 32.301zM69.982 27.708V16.145L67.91 18.225C66.515 19.62 63.919 19.62 62.526 18.225L60.213 15.913L53.326 22.802C51.854 24.289 49.432 24.289 47.942 22.802L44.301 19.161V27.709H69.982zM44.304 7.221V12.741C44.536 12.853 44.758 12.997 44.952 13.191L50.637 18.875L58.554 10.959A2.33 2.33 0 0 1 61.863 10.959L65.217 14.315L69.54 9.994C69.677 9.856 69.827 9.748 69.982 9.651V7.221H44.304zM62.858 23.48A2.724 2.724 0 0 1 68.306 23.48A2.724 2.724 0 0 1 62.858 23.48M36.258 74.372C25.445 74.372 16.641 65.568 16.641 54.77C16.641 48.246 19.855 42.483 24.747 38.921A37.956 37.956 0 0 1 19.332 36.26C12.92 32.443 4.623 24.877 1.536 10.438A5.649 5.649 0 0 1 2.66 5.735A5.65 5.65 0 0 1 7.077 3.631H35.783V9.631L7.489 9.566C12.825 33.554 33.203 35.152 33.408 35.152C34.327 35.152 35.102 35.168 35.767 35.183C35.942 35.183 36.099 35.152 36.274 35.152C47.088 35.152 55.876 43.956 55.876 54.754S47.073 74.372 36.258 74.372zM36.258 41.074C28.706 41.074 22.563 47.218 22.563 54.77S28.706 68.466 36.258 68.466C43.811 68.466 49.954 62.322 49.954 54.77S43.811 41.074 36.258 41.074z" />
    <glyph glyph-name="user-list"
      unicode="&#xE95A;"
      horiz-adv-x="76" d="M36.258 73.372C25.445 73.372 16.641 64.568 16.641 53.77C16.641 47.246 19.855 41.483 24.747 37.921A37.956 37.956 0 0 1 19.332 35.26C12.92 31.444 4.623 23.877 1.536 9.437A5.646 5.646 0 0 1 2.66 4.735A5.647 5.647 0 0 1 7.077 2.63H35.783V8.63L7.489 8.566C12.825 32.554 33.203 34.153 33.408 34.153C34.327 34.153 35.102 34.168 35.767 34.183C35.942 34.183 36.099 34.153 36.274 34.153C47.088 34.153 55.876 42.956 55.876 53.754S47.073 73.372 36.258 73.372zM36.258 40.074C28.706 40.074 22.563 46.218 22.563 53.77S28.706 67.466 36.258 67.466C43.811 67.466 49.954 61.322 49.954 53.77S43.811 40.074 36.258 40.074zM67.292 15.833H49.875A5.548 5.548 0 0 0 44.333 21.375V27.708A5.548 5.548 0 0 0 49.875 33.25H67.292A5.548 5.548 0 0 0 72.833 27.708V21.375A5.548 5.548 0 0 0 67.292 15.833zM49.875 28.5A0.793 0.793 0 0 1 49.083 27.708V21.375C49.083 20.939 49.439 20.583 49.875 20.583H67.292A0.793 0.793 0 0 1 68.083 21.375V27.708A0.792 0.792 0 0 1 67.292 28.5H49.875zM46.708 14.25H70.458A2.375 2.375 0 1 0 70.458 9.5H46.708A2.375 2.375 0 0 0 46.708 14.25zM46.708 7.917H65.708A2.375 2.375 0 1 0 65.708 3.167H46.708A2.376 2.376 0 0 0 46.708 7.917z" />
    </font>
</defs>
</svg>
